当前位置: 首页 >> 欧美电影 >> 蛇蝎情人.Dream Lover.1993.US.HDTV.1920x1040p.x264.AC3-KOOK.[中英双字].mkv 4.24G[BT下载] >> 正文

蛇蝎情人.Dream Lover.1993.US.HDTV.1920x1040p.x264.AC3-KOOK.[中英双字].mkv 4.24G[BT下载]

2021年08月19日 10:40:31     电影发布:来源于网络     电影分类:欧美电影     评论(0)    

蛇蝎情人.Dream Lover.1993.US.HDTV.1920x1040p.x264.AC3 KOOK.[中英双字].mkv 4.24G[BT下载] 悬疑片 惊悚片 剧情片 欧美电影  第1张

※※※※※※※ 影片信息 ※※※※※※※


◎片 名 Dream Lover

◎译 名 蛇蝎情人 / 梦中情人

◎年 代 1993

◎国 家 美国

◎类 别 剧情 / 悬疑 / 惊悚

◎语 言 英语

◎上映日 期 1993-10(MIFED) / 1994-05-06(美国)

◎字 幕 中英双字/繁英双字/简体字幕/繁体字幕/英文字幕

◎IMDB 评分 6.2/10 from 3663 users

◎豆瓣 评分 6.8/10 from 742 users

◎视频尺 寸 1920x1040p

◎片 长 1.39.08

◎导 演 尼古拉斯·卡赞

◎编 剧 尼古拉斯·卡赞

◎主 演 詹姆斯·斯派德 / 梅晨·阿米克



#399


◎简 介



雷(詹姆斯·斯派德 James Spader 饰)和妻子虽然也有过恩爱有加的岁月,但时间令两人渐行渐远,当他们发现彼此的距离时,感情的裂缝已经再也无法弥补了。两人选择了离婚。重新过上了单身生活的雷倍感寂寞,某日,在一场华丽而又盛大的宴会上,雷邂逅了一位名叫莉娜(梅晨·阿米克 M?dchen Amick 饰)的女子,后者的风情万种很快就吸引了雷的注意。

经过了三番五次的偶遇,雷和莉娜坠入了情网,浓情蜜意的两人很快就决定携手步入婚姻的殿堂,不仅如此,他们还有了彼此爱情的结晶。可是,甜蜜的时刻是短暂的,莉娜日渐古怪的举止令雷起了疑心,并且最终发现了她的不忠。






※※※※※※※ 参数信息 ※※※※※※※




General

Unique ID : 179336364902652169314553837498241679308 (0x86EAED727F991D5F84B33272F6447FCC)


Format : Matroska

Format version : Version 4 / Version 2

File size : 4.25 GiB

Duration : 1 h 39 min

Overall bit rate : 6 134 kb/s

Movie name : KOOK

Encoded date : UTC 2019-02-22 13:34:03

Writing application : mkvmerge v9.4.2 ('So High') 64bit

Writing library : libebml v1.3.4 + libmatroska v1.4.5

Attachments : STKAITI.TTF / fzgljw.ttf / 正式海报.jpg


Video

ID : 1

Format : AVC

Format/Info : Advanced Video Codec

Format profile : High@L4.1

Format settings, CABAC : Yes

Format settings, ReFrames : 4 frames

Codec ID : V_MPEG4/ISO/AVC

Duration : 1 h 39 min

Bit rate : 5 913 kb/s

Width : 1 920 pixels

Height : 1 040 pixels

Display aspect ratio : 1.85:1

Frame rate mode : Constant

Frame rate : 25.000 FPS

Color space : YUV

Chroma subsampling : 4:2:0

Bit depth : 8 bits

Scan type : Progressive

Bits/(Pixel*Frame) : 0.118

Stream size : 4.09 GiB (96%)

Title : Dream.Lover.1993.1080p.HDTV.x264.DD2.0-FGT

Writing library : x264 core 113 r1884 7313bb5

Encoding settings : cabac=1 / ref=4 / deblock=1:-2:-1 / analyse=0x3:0x113 / me=umh / subme=10 / psy=1 / psy_rd=1.00:0.10 / mixed_ref=1 / me_range=32 / chroma_me=1 / trellis=2 / 8x8dct=1 / cqm=0 / deadzone=21,11 / fast_pskip=0 / chroma_qp_offset=-3 / threads=12 / sliced_threads=0 / nr=0 / decimate=0 / interlaced=0 / constrained_intra=0 / bframes=3 / b_pyramid=2 / b_adapt=2 / b_bias=0 / direct=3 / weightb=1 / open_gop=0 / weightp=2 / keyint=250 / keyint_min=25 / scenecut=40 / intra_refresh=0 / rc_lookahead=60 / rc=2pass / mbtree=1 / bitrate=5913 / ratetol=1.0 / qcomp=0.60 / qpmin=0 / qpmax=69 / qpstep=4 / cplxblur=20.0 / qblur=0.5 / vbv_maxrate=50000 / vbv_bufsize=50000 / nal_hrd=none / ip_ratio=1.40 / aq=1:1.00

Language : English

Default : Yes

Forced : No


Audio

ID : 2

Format : AC-3

Format/Info : Audio Coding 3

Mode extension : CM (complete main)

Format settings, Endianness : Big

Codec ID : A_AC3

Duration : 1 h 39 min

Bit rate mode : Constant

Bit rate : 192 kb/s

Channel(s) : 2 channels

Channel positions : Front: L R

Sampling rate : 48.0 kHz

Frame rate : 31.250 FPS (1536 spf)

Compression mode : Lossy

Delay relative to video : 175 ms

Stream size : 136 MiB (3%)

Title : Dream.Lover.1993.1080p.HDTV.x264.DD2.0-FGT

Language : English

Default : Yes

Forced : No


Text #1

ID : 3

Format : ASS

Codec ID : S_TEXT/ASS

Codec ID/Info : Advanced Sub Station Alpha

Duration : 1 h 35 min

Bit rate : 274 b/s

Count of elements : 1342

Compression mode : Lossless

Stream size : 191 KiB (0%)

Title : 简英双字

Language : Chinese

Default : Yes

Forced : No


Text #2

ID : 4

Format : ASS

Codec ID : S_TEXT/ASS

Codec ID/Info : Advanced Sub Station Alpha

Duration : 1 h 35 min

Bit rate : 274 b/s

Count of elements : 1342

Compression mode : Lossless

Stream size : 191 KiB (0%)

Title : 繁英双字

Language : Chinese

Default : No

Forced : No


Text #3

ID : 5

Format : ASS

Codec ID : S_TEXT/ASS

Codec ID/Info : Advanced Sub Station Alpha

Duration : 1 h 35 min

Bit rate : 124 b/s

Count of elements : 1342

Compression mode : Lossless

Stream size : 87.0 KiB (0%)

Title : 简体字幕

Language : Chinese

Default : No

Forced : No


Text #4

ID : 6

Format : ASS

Codec ID : S_TEXT/ASS

Codec ID/Info : Advanced Sub Station Alpha

Duration : 1 h 35 min

Bit rate : 124 b/s

Count of elements : 1342

Compression mode : Lossless

Stream size : 87.0 KiB (0%)

Title : 繁体字幕

Language : Chinese

Default : No

Forced : No


Text #5

ID : 7

Format : ASS

Codec ID : S_TEXT/ASS

Codec ID/Info : Advanced Sub Station Alpha

Duration : 1 h 35 min

Bit rate : 205 b/s

Count of elements : 1318

Compression mode : Lossless

Stream size : 143 KiB (0%)

Title : 英文字幕

Language : English

Default : No

Forced : No



文件下载


除非特别注明,本文『蛇蝎情人.Dream Lover.1993.US.HDTV.1920x1040p.x264.AC3-KOOK.[中英双字].mkv 4.24G[BT下载]』来源于互联网机器人自动抓取,非本站原创。 浮游电影网不对本文拥有版权,如有侵犯,请联系邮箱:fuyouu#yandex.com[#换成@]投诉。我们会在15个工作日内删除。 但烦请转载时请标明出处:“本文转载于『浮游电影网』,原文地址:https://www.fuyouu.com/13713.html

评论吧骚年!

发表你的见解   

昵称*

E-mail*(建议输入,以便收到博主回复的提示邮件)

验证码*

您可以使用eMule或eMule Mod(Windows)、aMule(Win、Linux、Mac)等软件下载eD2k链接。。
eMule收藏集(.emulecollection)文件是您选中的所有链接的列表文件。eMule可以直接下载它们。
按住SHIFT键选择可以选中多个选择框。
可用文件名和大小选择器来选择文件。
文件名选择器帮您根据文件名称或后缀来选择文件。不分大小写。
符号使用:
和:空格( )、+
不包含:-
或:|
转义:一对英文引号("");
匹配开头:^
匹配结尾:$
例如:
选中所有名称中包含有“eMule”或“0.49c”字眼,但不包含有“exe”字眼的:emule|0.49c -exe
选中所有名称的开头是“eMule”,结尾是“0.49c”的:^emule 0.49c$
选中所有名称中带有“eMule 0.49c”的(必须是“eMule 0.49c”,中间没有别的字符,不能是“eMule fake 0.49c”),需要转义:"emule 0.49c"
大小选择器帮您根据文件大小选择文件。