当前位置: 首页 >> 国产电影 >> [百鸟朝凤][WEB-MP4/12.33GB][国语中字][4K-2160P][H265编码][传承,文艺,文化,国产,中国大陆,唢呐][BT下载] >> 正文

[百鸟朝凤][WEB-MP4/12.33GB][国语中字][4K-2160P][H265编码][传承,文艺,文化,国产,中国大陆,唢呐][BT下载]

2021年08月19日 10:38:05     电影发布:来源于网络     电影分类:国产电影     评论(0)    

[百鸟朝凤][WEB MP4/12.33GB][国语中字][4K 2160P][H265编码][传承,文艺,文化,国产,中国大陆,唢呐][BT下载] 音乐片 剧情片 国产电影  第1张

◎译 名 百鸟朝凤 / Song of the Phoenix

◎年 代 2013

◎产 地 中国大陆

◎类 别 剧情 / 音乐

◎语 言 汉语普通话

◎上映日期 2016-05-06(中国大陆) / 2017-04-20(中国大陆重映) / 2013-09-25(金鸡百花电影节)

◎IMDb链接 https://www.imdb.com/title/tt3214392/

◎豆瓣评分 8.3/10 (259804人评价)

◎豆瓣链接 https://movie.douban.com/subject/10831445/

◎片 长 108分钟

◎导 演 吴天明 Tianming Wu (id:1168676)

◎编 剧 吴天明 Tianming Wu (id:1168676)

罗雪莹 Xue-Ying Luo (id:1358108)

肖江虹 Jianghong Xiao (id:1358109)

◎演 员 陶泽如 Zeru Tao (id:1039767)

李岷城 Mincheng Li (id:1318702)

嵇波 Bo Ji (id:1323457)

胡先煦 Xianxu Hu (id:1329632)

郑伟 Wei Zheng (id:1325438)

迟蓬 Peng Chi (id:1314926)

袁中方 Zhongfang Yuan (id:1318647)

墨阳 Yang Mo (id:1317986)

张喜前 Xiqian Zhang (id:1322765)

谭群 Qun Tan (id:1358110)

王长玲 Changling Wang (id:1358111)

周天羽 Tianyu Zhou (id:1358112)

张双成 Shuangcheng Zhang (id:1358113)

许还山 Huanshan Xu (id:1313235)

方励 Li Fang (id:1275873)

吴天明 Tianming Wu (id:1168676)

张大龙 Dalong Zhang (id:1365347)

王天麟 Tianlin Wang (id:1351209)

谢政辉 Zhenghui Xie (id:1327861)

◎标 签 传承 / 文艺 / 文化 / 国产 / 中国大陆 / 唢呐 / 人生 / 剧情

◎简 介

老一代唢呐艺人焦三爷(陶泽如 饰)是个外冷内热的老人,看起来严肃古板,其实心怀热血。影片表现了在社会变革、民心浮躁的年代里,新老两代唢呐艺人为了信念的坚守所产生的真挚的师徒情、父子情、兄弟情。

本片改编自肖江虹同名小说。

◎获奖情况 (共9项)

第29届中国电影金鸡奖 (2013)

最佳故事片(提名)

最佳男主角(提名)

└──陶泽如 (id:1039767)

最佳女配角(提名)

└──迟蓬 (id:1314926)

第15届中国电影华表奖 (2013)

优秀电影音乐奖

└──张大龙 (id:1365347)

优秀农村题材影片

第21届北京大学生电影节 (2014)

最佳新人奖(提名)

└──李岷城 (id:1318702)

组委会大奖

第3届豆瓣电影年度榜单 (2016)

评分最高的华语电影(提名)

5月最受关注电影(提名)


##### MediaInfo ######

General

Complete name : Song.of.the.Phoenix.2013.WEB-DL.4K.H265.AAC-10015@BBQDDQ.COM.mp4

Format : MPEG-4

Format profile : Base Media

Codec ID : isom (isom/iso2/mp41)

File size : 12.3 GiB

Duration : 1 h 43 min

Overall bit rate : 17.0 Mb/s

Writing application : Lavf58.30.100

Video

ID : 1

Format : HEVC

Format/Info : High Efficiency Video Coding

Format profile : Main@L5@High

Codec ID : hev1

Codec ID/Info : High Efficiency Video Coding

Duration : 1 h 43 min

Bit rate : 16.9 Mb/s

Width : 3 840 pixels

Height : 1 616 pixels

Display aspect ratio : 2.40:1

Frame rate mode : Constant

Frame rate : 25.000 FPS

Color space : YUV

Chroma subsampling : 4:2:0

Bit depth : 8 bits

Bits/(Pixel*Frame) : 0.109

Stream size : 12.2 GiB (99%)

Codec configuration box : hvcC

Audio

ID : 2

Format : AAC LC

Format/Info : Advanced Audio Codec Low Complexity

Codec ID : mp4a-40-2

Duration : 1 h 43 min

Bit rate mode : Constant

Bit rate : 125 kb/s

Channel(s) : 2 channels

Channel layout : L R

Sampling rate : 44.1 kHz

Frame rate : 43.066 FPS (1024 SPF)

Compression mode : Lossy

Stream size : 92.3 MiB (1%)

Default : Yes

Alternate group : 1



文件下载


除非特别注明,本文『[百鸟朝凤][WEB-MP4/12.33GB][国语中字][4K-2160P][H265编码][传承,文艺,文化,国产,中国大陆,唢呐][BT下载]』来源于互联网机器人自动抓取,非本站原创。 浮游电影网不对本文拥有版权,如有侵犯,请联系邮箱:fuyouu#yandex.com[#换成@]投诉。我们会在15个工作日内删除。 但烦请转载时请标明出处:“本文转载于『浮游电影网』,原文地址:https://www.fuyouu.com/13712.html

评论吧骚年!

发表你的见解   

昵称*

E-mail*(建议输入,以便收到博主回复的提示邮件)

验证码*

您可以使用eMule或eMule Mod(Windows)、aMule(Win、Linux、Mac)等软件下载eD2k链接。。
eMule收藏集(.emulecollection)文件是您选中的所有链接的列表文件。eMule可以直接下载它们。
按住SHIFT键选择可以选中多个选择框。
可用文件名和大小选择器来选择文件。
文件名选择器帮您根据文件名称或后缀来选择文件。不分大小写。
符号使用:
和:空格( )、+
不包含:-
或:|
转义:一对英文引号("");
匹配开头:^
匹配结尾:$
例如:
选中所有名称中包含有“eMule”或“0.49c”字眼,但不包含有“exe”字眼的:emule|0.49c -exe
选中所有名称的开头是“eMule”,结尾是“0.49c”的:^emule 0.49c$
选中所有名称中带有“eMule 0.49c”的(必须是“eMule 0.49c”,中间没有别的字符,不能是“eMule fake 0.49c”),需要转义:"emule 0.49c"
大小选择器帮您根据文件大小选择文件。