当前位置: 首页 >> 欧美电影 >> 恐惧街2[中文字幕].Fear.Street.Part.2.1978.2021.1080p.NF.WEB-DL.DDP5.1.Atmos.x264 5.65GB >> 正文

恐惧街2[中文字幕].Fear.Street.Part.2.1978.2021.1080p.NF.WEB-DL.DDP5.1.Atmos.x264 5.65GB

2021年08月18日 11:44:28     电影发布:来源于网络     电影分类:欧美电影     评论(0)    

恐惧街2[中文字幕].Fear.Street.Part.2.1978.2021.1080p.NF.WEB DL.DDP5.1.Atmos.x264 5.65GB 悬疑片 恐怖片 欧美电影  第1张

◎译 名 恐惧街2 / 恐惧大街2:1978 / 恐惧街2:1978 / Fear Street Part 2: 1978

◎片 名 Fear Street 2

◎年 代 2021

◎产 地 美国

◎类 别 悬疑 / 恐怖

◎语 言 英语

◎上映日期 2021-07-09(美国)

◎IMDb链接 https://www.imdb.com/title/tt9701940/

◎豆瓣评分 6.5/10 (5858人评价)

◎豆瓣链接 https://movie.douban.com/subject/30444938/

◎片 长 110分钟

◎导 演 丽恩·贾尼埃克 Leigh Janiak (id:1377370)

◎编 剧 扎克·奥尔维奇 Zak Olkewicz (id:1409124)

丽恩·贾尼埃克 Leigh Janiak (id:1377370)

R·L·斯坦 R.L. Stine (id:1028271)

◎演 员 萨迪·辛克 Sadie Sink (id:1378568)

埃米莉·拉德 Emily Rudd (id:1365205)

吉莉安·雅各布斯 Gillian Jacobs (id:1274992)

马修·祖克 Matthew Zuk (id:1392747)

基亚娜·马德拉 Kiana Madeira (id:1360691)

小本杰明·弗洛雷斯 Benjamin Flores Jr. (id:1386100)

奥利维亚·韦尔奇 Olivia Welch (id:1457008)

布兰登·斯平克 Brandon Spink (id:1356027)

基娅拉·奥利勒拉 Chiara Aurelia (id:1358721)

伊登·坎贝尔 Eden Campbell (id:1424099)

Ted Sutherland Ted Sutherland (id:1393248)

迈克·普罗沃斯 Michael Provost (id:1399122)

德鲁·谢伊德 Drew Scheid (id:1405818)

芮安·辛普金斯 Ryan Simpkins (id:1000306)

乔丹娜·斯皮罗 Jordana Spiro (id:1000203)

乔迪恩·迪纳塔莱 Jordyn DiNatale (id:1453669)

艾米丽·布罗斯特 Emily Brobst (id:1195858)

迈克尔·钱德勒 Michael Chandler (id:1378740)

阿什利·祖克曼 Ashley Zukerman (id:1315353)

弗莱德·赫钦格 Fred Hechinger (id:1395178)

嘉娜·艾伦 Jana Allen (id:1454728)

托德·艾伦·德金 Todd Allen Durkin (id:1382745)

Chase Ledgerwood Chase Ledgerwood (id:1392765)

◎标 签 恐怖 / 惊悚 / 美国 / 悬疑 / 2021 / 超自然 / 美国电影 / 改编

◎简 介

在遭到诅咒的阴暗小镇上,杀人魔连续杀人,夜翼营人心惶惶,原本的欢乐夏日顿时成为恐怖的求生血战。

  1. ##### MediaInfo ######

  2. General

  3. Unique ID : 194207508328903921932127667250783322627 (0x921B016D230BF85F77B94FE4A9140203)

  4. Complete name : Fear.Street.Part.2.1978.2021.1080p.NF.WEB-DL.DDP5.1.Atmos.x264-10006@BBQDDQ.COM.mkv

  5. Format : Matroska

  6. Format version : Version 4

  7. File size : 5.64 GiB

  8. Duration : 1 h 50 min

  9. Overall bit rate mode : Variable

  10. Overall bit rate : 7 284 kb/s

  11. Encoded date : UTC 2021-08-16 13:42:54

  12. Writing application : mkvmerge v55.0.0 ('Waiting For Space') 64-bit

  13. Writing library : libebml v1.4.2 + libmatroska v1.6.4


  14. Video

  15. ID : 1

  16. Format : AVC

  17. Format/Info : Advanced Video Codec

  18. Format profile : High@L4

  19. Format settings : CABAC / 4 Ref Frames

  20. Format settings, CABAC : Yes

  21. Format settings, Reference frames : 4 frames

  22. Codec ID : V_MPEG4/ISO/AVC

  23. Duration : 1 h 50 min

  24. Bit rate mode : Variable

  25. Bit rate : 6 515 kb/s

  26. Maximum bit rate : 20.0 Mb/s

  27. Width : 1 920 pixels

  28. Height : 1 080 pixels

  29. Display aspect ratio : 16:9

  30. Frame rate mode : Constant

  31. Frame rate : 24.000 FPS

  32. Color space : YUV

  33. Chroma subsampling : 4:2:0

  34. Bit depth : 8 bits

  35. Scan type : Progressive

  36. Bits/(Pixel*Frame) : 0.131

  37. Stream size : 5.05 GiB (89%)

  38. Writing library : x264 core 148 r2722 1b0121b

  39. Encoding settings : cabac=1 / ref=4 / deblock=1:0:0 / analyse=0x3:0x111 / me=umh / subme=10 / psy=1 / psy_rd=1.00:0.00 / mixed_ref=1 / me_range=120 / chroma_me=1 / trellis=2 / 8x8dct=1 / cqm=0 / deadzone=21,11 / fast_pskip=1 / chroma_qp_offset=-2 / threads=6 / lookahead_threads=1 / sliced_threads=0 / nr=0 / decimate=1 / interlaced=0 / NTMzNTQ= / bluray_compat=0 / stitchable=1 / constrained_intra=0 / bframes=16 / b_pyramid=2 / b_adapt=2 / b_bias=0 / direct=3 / weightb=1 / open_gop=0 / weightp=2 / keyint=240 / keyint_min=121 / scenecut=0 / intra_refresh=0 / rc_lookahead=240 / rc=crf / mbtree=1 / crf=16.0 / qcomp=0.50 / qpmin=6 / qpmax=51 / qpstep=4 / vbv_maxrate=20000 / vbv_bufsize=25000 / crf_max=0.0 / nal_hrd=vbr / filler=0 / NTMzNTQ=LmsMAP37EqsCpk / ip_ratio=1.40 / aq=1:0.80

  40. Default : Yes

  41. Forced : No


  42. Audio

  43. ID : 2

  44. Format : E-AC-3 JOC

  45. Format/Info : Enhanced AC-3 with Joint Object Coding

  46. Commercial name : Dolby Digital Plus with Dolby Atmos

  47. Codec ID : A_EAC3

  48. Duration : 1 h 50 min

  49. Bit rate mode : Constant

  50. Bit rate : 768 kb/s

  51. Channel(s) : 6 channels

  52. Channel layout : L R C LFE Ls Rs

  53. Sampling rate : 48.0 kHz

  54. Frame rate : 31.250 FPS (1536 SPF)

  55. Compression mode : Lossy

  56. Stream size : 609 MiB (11%)

  57. Language : English

  58. Service kind : Complete Main

  59. Default : Yes

  60. Forced : No

  61. Complexity index : 16

  62. Number of dynamic objects : 15

  63. Bed channel count : 1 channel

  64. Bed channel configuration : LFE


  65. Text #1

  66. ID : 3

  67. Format : UTF-8

  68. Codec ID : S_TEXT/UTF8

  69. Codec ID/Info : UTF-8 Plain Text

  70. Duration : 1 h 49 min

  71. Bit rate : 45 b/s

  72. Count of elements : 1372

  73. Stream size : 36.5 KiB (0%)

  74. Title : 简体中文

  75. Language : Chinese

  76. Default : Yes

  77. Forced : No


  78. Text #2

  79. ID : 4

  80. Format : UTF-8

  81. Codec ID : S_TEXT/UTF8

  82. Codec ID/Info : UTF-8 Plain Text

  83. Duration : 1 h 49 min

  84. Bit rate : 47 b/s

  85. Count of elements : 1372

  86. Stream size : 37.7 KiB (0%)

  87. Title : 繁體中文

  88. Language : Chinese

  89. Default : No

  90. Forced : No


  91. Text #3

  92. ID : 5

  93. Format : UTF-8

  94. Codec ID : S_TEXT/UTF8

  95. Codec ID/Info : UTF-8 Plain Text

  96. Duration : 1 h 43 min

  97. Bit rate : 73 b/s

  98. Count of elements : 1862

  99. Stream size : 55.8 KiB (0%)

  100. Title : English

  101. Language : English

  102. Default : No

  103. Forced : No



文件下载


除非特别注明,本文『恐惧街2[中文字幕].Fear.Street.Part.2.1978.2021.1080p.NF.WEB-DL.DDP5.1.Atmos.x264 5.65GB』来源于互联网机器人自动抓取,非本站原创。 浮游电影网不对本文拥有版权,如有侵犯,请联系邮箱:fuyouu#yandex.com[#换成@]投诉。我们会在15个工作日内删除。 但烦请转载时请标明出处:“本文转载于『浮游电影网』,原文地址:https://www.fuyouu.com/13702.html

评论吧骚年!

发表你的见解   

昵称*

E-mail*(建议输入,以便收到博主回复的提示邮件)

验证码*

您可以使用eMule或eMule Mod(Windows)、aMule(Win、Linux、Mac)等软件下载eD2k链接。。
eMule收藏集(.emulecollection)文件是您选中的所有链接的列表文件。eMule可以直接下载它们。
按住SHIFT键选择可以选中多个选择框。
可用文件名和大小选择器来选择文件。
文件名选择器帮您根据文件名称或后缀来选择文件。不分大小写。
符号使用:
和:空格( )、+
不包含:-
或:|
转义:一对英文引号("");
匹配开头:^
匹配结尾:$
例如:
选中所有名称中包含有“eMule”或“0.49c”字眼,但不包含有“exe”字眼的:emule|0.49c -exe
选中所有名称的开头是“eMule”,结尾是“0.49c”的:^emule 0.49c$
选中所有名称中带有“eMule 0.49c”的(必须是“eMule 0.49c”,中间没有别的字符,不能是“eMule fake 0.49c”),需要转义:"emule 0.49c"
大小选择器帮您根据文件大小选择文件。