当前位置: 首页 >> 国产电影 >> 太平轮(下)·彼岸[国语配音/中文字幕].The.Crossing.II.2015.1080p.BluRay.x265.10bit.DTS 7.88GB >> 正文

太平轮(下)·彼岸[国语配音/中文字幕].The.Crossing.II.2015.1080p.BluRay.x265.10bit.DTS 7.88GB

2021年08月18日 11:37:55     电影发布:来源于网络     电影分类:国产电影     评论(0)    

太平轮(下)·彼岸[国语配音/中文字幕].The.Crossing.II.2015.1080p.BluRay.x265.10bit.DTS 7.88GB 灾难片 爱情片 剧情片 国产电影  第1张

◎译 名 太平轮(下)·彼岸 / 太平轮(下):彼岸 / 太平轮II:惊涛挚爱(台) / 生死恋 / 1949 / The Crossing : Part 2

◎年 代 2015

◎产 地 中国大陆 / 中国香港

◎类 别 剧情 / 爱情 / 灾难

◎语 言 汉语普通话 / 日语 / 闽南语 / 上海话

◎上映日期 2015-07-30(中国大陆)

◎IMDb链接 https://www.imdb.com/title/tt4027270/

◎豆瓣评分 6.6/10 (61102人评价)

◎豆瓣链接 https://movie.douban.com/subject/25956520/

◎片 长 131分钟

◎导 演 吴宇森 John Woo (id:1027853)

◎编 剧 王蕙玲 Hui-Ling Wang (id:1300390)

苏照彬 Chao-Bin Su (id:1274731)

陈静慧 Jinghui Chen (id:1324546)

吴宇森 John Woo (id:1027853)

◎演 员 章子怡 Ziyi Zhang (id:1041014)

金城武 Takeshi Kaneshiro (id:1027883)

宋慧乔 Hye-kyo Song (id:1197534)

黄晓明 Xiaoming Huang (id:1041404)

佟大为 Dawei Tong (id:1009179)

长泽雅美 Masami Nagasawa (id:1018667)

秦海璐 Hailu Qin (id:1274437)

俞飞鸿 Faye Yu (id:1014618)

杨祐宁 Yo Yang (id:1051157)

杨贵媚 Kuei-Mei Yang (id:1165442)

丛珊 Shan Cong (id:1047358)

吴飞霞 Angeles Woo (id:1322423)

王千源 Qianyuan Wang (id:1314827)

林保怡 Bowie Lam (id:1274606)

林美秀 Mei-hsiu Lin (id:1316086)

高捷 Jack Kao (id:1276076)

黄柏钧 Denny Huang (id:1321304)

寇家瑞 Chia-Jui Kou (id:1336612)

许还幻 Huanhuan Xu (id:1315233)

尤勇智 Yongzhi You (id:1301518)

刘仪伟 Yiwei Liu (id:1315726)

黑木瞳 Hitomi Kuroki (id:1028490)

寇世勋 Johnny Kou Hsi-Shun (id:1275614)

崔陆萌 Lumeng Cui (id:1349292)

罗大佑 Tayu Lo (id:1011384)

岩代太郎 Tar? Iwashiro (id:1287445)

赵非 Fei Zhao (id:1283522)

杨振宇 Zhenyu Yang (id:1424278)

缪健辉 Tony Miu (id:1378532)

李天雷 Tianlei Li (id:1449034)

杨红雨 Hongyu Yang (id:1301417)

马光荣 Horace Ma (id:1330613)

鲁伟 Wei Lu (id:1382067)

周惠坤 Thomas Chow (id:1330717)

桑林 Sang Lin (id:1378391)

姚信子 Xinzi Yao (id:1421729)

杜笃之 Du-Che Tu (id:1275159)

罗礼贤 Bruce Law (id:1289542)

罗义民 Norman Law (id:1316462)

孙秋霞 Qiuxia Sun (id:1311580)

◎标 签 战争 / 吴宇森 / 爱情 / 金城武 / 章子怡 / 2015 / 中国电影 / 宋慧乔

◎简 介

20世纪40年代,内战快结束之际,台湾医生严泽坤(金城武 饰)频繁往返于台湾通往大陆的邮轮“太平轮”上,以便购买药品。为了维持家庭生计,表面上他风平浪静,内心却一直没有停止思念因战争被迫分离的恋人雅子(长泽雅美 饰),而他的弟弟严泽明(杨佑宁 饰)则一心想去大陆搞革命,苦难家庭风雨飘摇。严泽坤偶遇有过一面之缘的将军雷义方(黄晓明 饰)夫人(宋慧乔 饰),雷将军的通信兵佟大庆(佟大为 饰)念念不忘底层女性于真(章子怡 饰),还有士官(王千源 饰)、夫人(俞飞鸿 饰),众人相逢在最后一班去台湾的“太平轮”上,书写了战乱年代的悲欢离合,命运的齿轮开启,大时代下的小人物该何去何从?

◎获奖情况 (共5项)

第35届香港电影金像奖 (2016)

最佳美术指导(提名)

最佳服装造型设计(提名)

最佳原创电影音乐(提名)

最佳原创电影歌曲(提名)

第16届中国电影华表奖 (2016)

优秀摄影

└──赵非 (id:1283522)

  1. ##### MediaInfo ######

  2. General

  3. Unique ID : 292950112348380863873013235947785824719 (0xDC6423ACFCE3F5AD1FB6BE13EB6E29CF)

  4. Complete name : The.Crossing.II.2015.1080p.BluRay.x265.10bit.DTS-10017@BBQDDQ.COM.mkv

  5. Format : Matroska

  6. Format version : Version 4

  7. File size : 7.88 GiB

  8. Duration : 2 h 5 min

  9. Overall bit rate : 8 970 kb/s

  10. Movie name : The Crossing II - Blu-ray

  11. Encoded date : UTC 2021-08-13 04:06:11

  12. Writing application : mkvmerge v59.0.0 ('Shining Star') 64-bit

  13. Writing library : libebml v1.4.2 + libmatroska v1.6.4

  14. Cover : Yes

  15. Attachments : cover.jpg


  16. Video

  17. ID : 1

  18. Format : HEVC

  19. Format/Info : High Efficiency Video Coding

  20. Format profile : Main 10@L4@Main

  21. Codec ID : V_MPEGH/ISO/HEVC

  22. Duration : 2 h 5 min

  23. Bit rate : 7 437 kb/s

  24. Width : 1 918 pixels

  25. Height : 800 pixels

  26. Display aspect ratio : 2.40:1

  27. Frame rate mode : Constant

  28. Frame rate : 24.000 FPS

  29. Color space : YUV

  30. Chroma subsampling : 4:2:0

  31. Bit depth : 10 bits

  32. Bits/(Pixel*Frame) : 0.202

  33. Stream size : 6.53 GiB (83%)

  34. Writing library : x265 3.5+2-g2b25c9ba0+45:[Windows][GCC 10.2.0][64 bit] Yuuki 10bit+8bit+12bit

  35. Encoding settings : rc=crf / crf=18.0000 / qcomp=0.60 / qpstep=4 / stats-write=0 / stats-read=0 / no-lossless / no-cu-lossless / aq-mode=3 / aq-strength=0.90 / cbqpoffs=0 / crqpoffs=0 / ipratio=1.40 / pbratio=1.30 / psy-rd=2.00 / psy-rdoq=0.00 / deblock=0:0 / ref=6 / limit-refs=1 / no-limit-modes / bframes=8 / b-adapt=2 / bframe-bias=0 / b-pyramid / b-intra / weightp / weightb / min-keyint=24 / max-keyint=240 / rc-lookahead=24 / gop-lookahead=0 / NTMzNTQ=uuDQuD2mJt9fsCf / scenecut=40 / hist-scenecut=0 / radl=0 / max-cu-size=64 / min-cu-size=8 / me=3 / subme=7 / merange=48 / rdoq-level=0 / rd=4 / rdpenalty=0 / dynamic-rd=0.00 / no-rd-refine / ----- / cutree / sao / no-rect / no-amp / no-open-gop / wpp / no-pmode / no-pme / no-psnr / no-ssim / nr-intra=0 / nr-inter=0 / no-constrained-intra / no-strong-intra-smoothing / max-tu-size=32 / tu-inter-depth=1 / tu-intra-depth=1 / limit-tu=0 / qg-size=32 / qpmax=69 / qpmin=0 / ----- / cpuid=533541111039 / frame-threads=4 / numa-pools=+ / log-level=2 / input-csp=1 / input-res=1918x800 / interlace=0 / level-idc=0 / high-tier=1 / uhd-bd=0 / no-allow-non-conformance / no-repeat-headers / aud / no-hrd / info / hash=0 / no-temporal-layers / lookahead-slices=0 / no-splice / no-intra-refresh / no-ssim-rd / signhide / no-tskip / max-merge=3 / temporal-mvp / no-frame-dup / no-hme / no-analyze-src-pics / no-sao-non-deblock / selective-sao=4 / early-skip / rskip / no-fast-intra / no-tskip-fast / no-splitrd-skip / zone-count=0 / no-strict-cbr / no-rc-grain / no-const-vbv / sar=0 / overscan=0 / videoformat=5 / range=0 / colorprim=2 / transfer=2 / colormatrix=2 / chromaloc=0 / display-window=0 / cll=0,0 / min-luma=0 / max-luma=1023 / log2-max-poc-lsb=8 / vui-timing-info / vui-hrd-info / slices=1 / no-opt-qp-pps / no-opt-ref-list-length-pps / no-multi-pass-opt-rps / scenecut-bias=0.05 / hist-threshold=0.03 / no-opt-cu-delta-qp / no-aq-motion / no-hdr10 / no-hdr10-opt / no-dhdr10-opt / no-idr-recovery-sei / analysis-reuse-level=0 / analysis-save-reuse-level=0 / analysis-load-reuse-level=0 / scale-factor=0 / refine-intra=0 / refine-inter=0 / refine-mv=1 / refine-ctu-distortion=0 / no-limit-sao / ctu-info=0 / no-lowpass-dct / refine-analysis-type=0 / copy-pic=1 / max-ausize-factor=1.0 / no-dynamic-refine / no-single-sei / no-hevc-aq / no-svt / no-field / qp-adaptation-range=1.00 / scenecut-aware-qp=0conformance-window-offsets / right=0 / bottom=0 / NTMzNTQ= / decoder-max-rate=0 / no-vbv-live-multi-pass

  36. Language : Chinese

  37. Default : Yes

  38. Forced : No


  39. Audio

  40. ID : 2

  41. Format : DTS

  42. Format/Info : Digital Theater Systems

  43. Codec ID : A_DTS

  44. Duration : 2 h 5 min

  45. Bit rate mode : Constant

  46. Bit rate : 1 510 kb/s

  47. Channel(s) : 6 channels

  48. Channel layout : C L R Ls Rs LFE

  49. Sampling rate : 48.0 kHz

  50. Frame rate : 93.750 FPS (512 SPF)

  51. Bit depth : 24 bits

  52. Compression mode : Lossy

  53. Stream size : 1.33 GiB (17%)

  54. Title : 国语

  55. Language : Chinese

  56. Default : Yes

  57. Forced : No


  58. Text #1

  59. ID : 3

  60. ID in the original source medium : 4608 (0x1200)

  61. Format : PGS

  62. Muxing mode : zlib

  63. Codec ID : S_HDMV/PGS

  64. Codec ID/Info : Picture based subtitle format used on BDs/HD-DVDs

  65. Duration : 2 h 2 min

  66. Bit rate : 22.0 kb/s

  67. Count of elements : 2844

  68. Stream size : 19.2 MiB (0%)

  69. Title : 繁中

  70. Language : Chinese

  71. Default : Yes

  72. Forced : No

  73. Original source medium : Blu-ray


  74. Text #2

  75. ID : 4

  76. ID in the original source medium : 4609 (0x1201)

  77. Format : PGS

  78. Muxing mode : zlib

  79. Codec ID : S_HDMV/PGS

  80. Codec ID/Info : Picture based subtitle format used on BDs/HD-DVDs

  81. Duration : 1 h 57 min

  82. Bit rate : 24.2 kb/s

  83. Count of elements : 2752

  84. Stream size : 20.4 MiB (0%)

  85. Title : 英语

  86. Language : English

  87. Default : No

  88. Forced : No

  89. Original source medium : Blu-ray


  90. Menu

  91. 00:00:00.000 : 第 01 章

  92. 00:07:06.166 : 第 02 章

  93. 00:14:15.208 : 第 03 章

  94. 00:21:40.458 : 第 04 章

  95. 00:28:22.250 : 第 05 章

  96. 00:35:00.166 : 第 06 章

  97. 00:41:01.375 : 第 07 章

  98. 00:45:47.750 : 第 08 章

  99. 00:50:47.333 : 第 09 章

  100. 00:58:15.125 : 第 10 章

  101. 01:09:50.583 : 第 11 章

  102. 01:17:36.333 : 第 12 章

  103. 01:26:31.666 : 第 13 章

  104. 01:36:14.708 : 第 14 章

  105. 01:52:28.958 : 第 15 章



文件下载


除非特别注明,本文『太平轮(下)·彼岸[国语配音/中文字幕].The.Crossing.II.2015.1080p.BluRay.x265.10bit.DTS 7.88GB』来源于互联网机器人自动抓取,非本站原创。 浮游电影网不对本文拥有版权,如有侵犯,请联系邮箱:fuyouu#yandex.com[#换成@]投诉。我们会在15个工作日内删除。 但烦请转载时请标明出处:“本文转载于『浮游电影网』,原文地址:https://www.fuyouu.com/13698.html

评论吧骚年!

发表你的见解   

昵称*

E-mail*(建议输入,以便收到博主回复的提示邮件)

验证码*

您可以使用eMule或eMule Mod(Windows)、aMule(Win、Linux、Mac)等软件下载eD2k链接。。
eMule收藏集(.emulecollection)文件是您选中的所有链接的列表文件。eMule可以直接下载它们。
按住SHIFT键选择可以选中多个选择框。
可用文件名和大小选择器来选择文件。
文件名选择器帮您根据文件名称或后缀来选择文件。不分大小写。
符号使用:
和:空格( )、+
不包含:-
或:|
转义:一对英文引号("");
匹配开头:^
匹配结尾:$
例如:
选中所有名称中包含有“eMule”或“0.49c”字眼,但不包含有“exe”字眼的:emule|0.49c -exe
选中所有名称的开头是“eMule”,结尾是“0.49c”的:^emule 0.49c$
选中所有名称中带有“eMule 0.49c”的(必须是“eMule 0.49c”,中间没有别的字符,不能是“eMule fake 0.49c”),需要转义:"emule 0.49c"
大小选择器帮您根据文件大小选择文件。