当前位置: 首页 >> 国产电影 >> 西游记之孙悟空三打白骨精[国语配音/粤语配音/中文字幕].The.Monkey.King.2.2016.1080p.BluRay.x265.DTS.2Audio 8.05GB >> 正文

西游记之孙悟空三打白骨精[国语配音/粤语配音/中文字幕].The.Monkey.King.2.2016.1080p.BluRay.x265.DTS.2Audio 8.05GB

2021年08月18日 00:23:46     电影发布:来源于网络     电影分类:国产电影     评论(0)    

西游记之孙悟空三打白骨精[国语配音/粤语配音/中文字幕].The.Monkey.King.2.2016.1080p.BluRay.x265.DTS.2Audio 8.05GB 奇幻片 动作片 喜剧片 国产电影  第1张

◎译 名 西游记之孙悟空三打白骨精 / 西游记之大闹天宫续集 / 西游记之三打白骨精 / 三打白骨精 / The Monkey King 2

◎年 代 2016

◎产 地 中国大陆 / 中国香港

◎类 别 喜剧 / 动作 / 奇幻

◎语 言 汉语普通话

◎上映日期 2016-02-08(中国大陆)

◎IMDb链接 https://www.imdb.com/title/tt4591310/

◎豆瓣评分 5.6/10 (133443人评价)

◎豆瓣链接 https://movie.douban.com/subject/25827963/

◎片 长 120分钟

◎导 演 郑保瑞 Pou-Soi Cheang (id:1274240)

◎编 剧 冉平 Ping Ran (id:1319849)

冉甲男 Jia-nan Ran (id:1319850)

文宁 Ning Wen (id:1327359)

吴承恩 Cheng'en Wu (id:1275984)

◎演 员 郭富城 Aaron Kwok (id:1041390)

巩俐 Li Gong (id:1035641)

冯绍峰 Shaofeng Feng (id:1275721)

小沈阳 Xiao Shen-Yang (id:1274081)

罗子溢 Chung Him Law (id:1313369)

费翔 Kris Phillipps (id:1211449)

陈慧琳 Kelly Chen (id:1050335)

阿旺仁青 Ngawang Rinchen (id:1339505)

彭宇 Yu Peng (id:1329906)

程东 John Ching Tung (id:1316720)

刘楚恬 Chutian Liu (id:1345571)

余辛 Xin Yu (id:1354638)

魏璐 Lu Wei (id:1319280)

齐浠儿 Giselle Chia (id:1354639)

母其弥雅 Miya Muqi (id:1343228)

张籽沐 Zimu Zhang (id:1328290)

叶淑铃 Shuling Ye (id:1382272)

王海峰 Hoifung Wong (id:1382273)

刘晓光 Kiefer Liu (id:1275626)

任雅静 Léa Ren (id:1383828)

克里斯托弗·杨 Christopher Young (id:1048309)

胡伟立 Wai Lap Wu (id:1275249)

许镜清 Jingqing Xu (id:1334529)

缪健辉 Tony Miu (id:1378532)

杨涛 Tao Yang (id:1301418)

林安儿 Angie Lam (id:1038152)

鲁伟 Wei Lu (id:1382067)

雅克·斯特罗维斯 Jacques Stroweis (id:1298561)

洪金宝 Sammo Hung Kam-Bo (id:1055887)

林克明 Ke Ming Lin (id:1360416)

◎标 签 西游记 / 奇幻 / 2016 / 动作 / 中国大陆 / 魔幻 / 喜剧 / 香港

◎简 介

影片讲述了师徒四人在西行的路上,白骨精(巩俐 饰)为夺唐僧(冯绍峰 饰)而巧设圈套,被孙悟空(郭富城 饰)识破,屡次受挫。唐僧却误会孙悟空滥杀无辜,将其逐出师门。白骨精趁虚而入,掳走唐僧。悟空闻讯前往营救,彻底击溃白骨精。师徒冰释前嫌,重新上路。

◎获奖情况 (共6项)

第36届香港电影金像奖 (2017)

最佳美术指导(提名)

最佳服装造型设计

最佳动作设计(提名)

最佳音响效果(提名)

最佳视觉效果

第3届豆瓣电影年度榜单 (2016)

2月最受关注电影(提名)

  1. ##### MediaInfo ######

  2. General

  3. Unique ID : 55206396826614968621943325711903293512 (0x29885D82CB4CE495A03F5F073E110048)

  4. Complete name : The.Monkey.King.2.2016.1080p.BluRay.x265.DTS.2Audio-10017@BBQDDQ.COM.mkv

  5. Format : Matroska

  6. Format version : Version 4

  7. File size : 8.05 GiB

  8. Duration : 1 h 59 min

  9. Overall bit rate : 9 675 kb/s

  10. Encoded date : UTC 2021-08-13 17:44:01

  11. Writing application : mkvmerge v58.0.0 ('Supper's Ready') 64-bit

  12. Writing library : libebml v1.4.2 + libmatroska v1.6.4


  13. Video

  14. ID : 1

  15. Format : HEVC

  16. Format/Info : High Efficiency Video Coding

  17. Format profile : Main 10@L4@Main

  18. Codec ID : V_MPEGH/ISO/HEVC

  19. Duration : 1 h 59 min

  20. Bit rate : 6 631 kb/s

  21. Width : 1 920 pixels

  22. Height : 816 pixels

  23. Display aspect ratio : 2.35:1

  24. Frame rate mode : Constant

  25. Frame rate : 23.976 (24000/1001/53354) FPS

  26. Color space : YUV

  27. Chroma subsampling : 4:2:0

  28. Bit depth : 10 bits

  29. Bits/(Pixel*Frame) : 0.177

  30. Stream size : 5.52 GiB (69%)

  31. Writing library : x265 3.5+2-g2b25c9ba0+45:[Windows][GCC 10.2.0][64 bit] Yuuki 10bit+8bit+12bit

  32. Encoding settings : rc=crf / crf=17.0000 / qcomp=0.60 / qpstep=4 / stats-write=0 / stats-read=0 / no-lossless / no-cu-lossless / aq-mode=3 / aq-strength=0.90 / cbqpoffs=0 / crqpoffs=0 / ipratio=1.40 / pbratio=1.30 / psy-rd=2.00 / psy-rdoq=0.00 / deblock=0:0 / ref=6 / limit-refs=1 / no-limit-modes / bframes=8 / b-adapt=2 / bframe-bias=0 / b-pyramid / b-intra / weightp / weightb / min-keyint=24 / max-keyint=240 / rc-lookahead=24 / gop-lookahead=0 / NTMzNTQ=uuDQuD2mJt9fsCf / scenecut=40 / hist-scenecut=0 / radl=0 / max-cu-size=64 / min-cu-size=8 / me=3 / subme=7 / merange=48 / rdoq-level=0 / rd=4 / rdpenalty=0 / dynamic-rd=0.00 / no-rd-refine / ----- / cutree / sao / no-rect / no-amp / no-open-gop / wpp / no-pmode / no-pme / no-psnr / no-ssim / nr-intra=0 / nr-inter=0 / no-constrained-intra / no-strong-intra-smoothing / max-tu-size=32 / tu-inter-depth=1 / tu-intra-depth=1 / limit-tu=0 / qg-size=32 / qpmax=69 / qpmin=0 / ----- / cpuid=533541111039 / frame-threads=4 / numa-pools=+ / log-level=2 / input-csp=1 / input-res=1920x816 / interlace=0 / level-idc=0 / high-tier=1 / uhd-bd=0 / no-allow-non-conformance / no-repeat-headers / aud / no-hrd / info / hash=0 / no-temporal-layers / lookahead-slices=0 / no-splice / no-intra-refresh / no-ssim-rd / signhide / no-tskip / max-merge=3 / temporal-mvp / no-frame-dup / no-hme / no-analyze-src-pics / no-sao-non-deblock / selective-sao=4 / early-skip / rskip / no-fast-intra / no-tskip-fast / no-splitrd-skip / zone-count=0 / no-strict-cbr / no-rc-grain / no-const-vbv / sar=0 / overscan=0 / videoformat=5 / range=0 / colorprim=2 / transfer=2 / colormatrix=2 / chromaloc=0 / display-window=0 / cll=0,0 / min-luma=0 / max-luma=1023 / log2-max-poc-lsb=8 / vui-timing-info / vui-hrd-info / slices=1 / no-opt-qp-pps / no-opt-ref-list-length-pps / no-multi-pass-opt-rps / scenecut-bias=0.05 / hist-threshold=0.03 / no-opt-cu-delta-qp / no-aq-motion / no-hdr10 / no-hdr10-opt / no-dhdr10-opt / no-idr-recovery-sei / analysis-reuse-level=0 / analysis-save-reuse-level=0 / analysis-load-reuse-level=0 / scale-factor=0 / refine-intra=0 / refine-inter=0 / refine-mv=1 / refine-ctu-distortion=0 / no-limit-sao / ctu-info=0 / no-lowpass-dct / refine-analysis-type=0 / copy-pic=1 / max-ausize-factor=1.0 / no-dynamic-refine / no-single-sei / no-hevc-aq / no-svt / no-field / qp-adaptation-range=1.00 / scenecut-aware-qp=0conformance-window-offsets / right=0 / bottom=0 / NTMzNTQ= / decoder-max-rate=0 / no-vbv-live-multi-pass

  33. Language : English

  34. Default : Yes

  35. Forced : No


  36. Audio #1

  37. ID : 2

  38. ID in the original source medium : 4352 (0x1100)

  39. Format : DTS

  40. Format/Info : Digital Theater Systems

  41. Codec ID : A_DTS

  42. Duration : 1 h 59 min

  43. Bit rate mode : Constant

  44. Bit rate : 1 509 kb/s

  45. Channel(s) : 6 channels

  46. Channel layout : C L R Ls Rs LFE

  47. Sampling rate : 48.0 kHz

  48. Frame rate : 93.750 FPS (512 SPF)

  49. Bit depth : 24 bits

  50. Compression mode : Lossy

  51. Stream size : 1.26 GiB (16%)

  52. Title : Cantonese

  53. Language : Chinese

  54. Default : Yes

  55. Forced : No

  56. Original source medium : Blu-ray


  57. Audio #2

  58. ID : 3

  59. ID in the original source medium : 4354 (0x1102)

  60. Format : DTS

  61. Format/Info : Digital Theater Systems

  62. Codec ID : A_DTS

  63. Duration : 1 h 59 min

  64. Bit rate mode : Constant

  65. Bit rate : 1 509 kb/s

  66. Channel(s) : 6 channels

  67. Channel layout : C L R Ls Rs LFE

  68. Sampling rate : 48.0 kHz

  69. Frame rate : 93.750 FPS (512 SPF)

  70. Bit depth : 16 bits

  71. Compression mode : Lossy

  72. Stream size : 1.26 GiB (16%)

  73. Title : Mandarin

  74. Language : Chinese

  75. Default : No

  76. Forced : No

  77. Original source medium : Blu-ray


  78. Text #1

  79. ID : 4

  80. ID in the original source medium : 4609 (0x1201)

  81. Format : PGS

  82. Muxing mode : zlib

  83. Codec ID : S_HDMV/PGS

  84. Codec ID/Info : Picture based subtitle format used on BDs/HD-DVDs

  85. Duration : 1 h 51 min

  86. Bit rate : 15.4 kb/s

  87. Count of elements : 1834

  88. Stream size : 12.3 MiB (0%)

  89. Title : chs

  90. Language : Chinese

  91. Default : Yes

  92. Forced : No

  93. Original source medium : Blu-ray


  94. Text #2

  95. ID : 5

  96. ID in the original source medium : 4608 (0x1200)

  97. Format : PGS

  98. Muxing mode : zlib

  99. Codec ID : S_HDMV/PGS

  100. Codec ID/Info : Picture based subtitle format used on BDs/HD-DVDs

  101. Duration : 1 h 51 min

  102. Bit rate : 16.6 kb/s

  103. Count of elements : 1834

  104. Stream size : 13.2 MiB (0%)

  105. Title : cht

  106. Language : Chinese

  107. Default : No

  108. Forced : No

  109. Original source medium : Blu-ray


  110. Text #3

  111. ID : 6

  112. ID in the original source medium : 4610 (0x1202)

  113. Format : PGS

  114. Muxing mode : zlib

  115. Codec ID : S_HDMV/PGS

  116. Codec ID/Info : Picture based subtitle format used on BDs/HD-DVDs

  117. Duration : 1 h 51 min

  118. Bit rate : 17.9 kb/s

  119. Count of elements : 1834

  120. Stream size : 14.2 MiB (0%)

  121. Language : English

  122. Default : No

  123. Forced : No

  124. Original source medium : Blu-ray


  125. Menu

  126. 00:00:00.000 : 第 01 章

  127. 00:07:55.224 : 第 02 章

  128. 00:14:17.356 : 第 03 章

  129. 00:21:08.684 : 第 04 章

  130. 00:28:40.677 : 第 05 章

  131. 00:33:37.473 : 第 06 章

  132. 00:38:47.116 : 第 07 章

  133. 00:43:08.460 : 第 08 章

  134. 00:48:57.059 : 第 09 章

  135. 00:52:17.884 : 第 10 章

  136. 00:58:16.284 : 第 11 章

  137. 01:04:08.845 : 第 12 章

  138. 01:09:12.648 : 第 13 章

  139. 01:13:05.339 : 第 14 章

  140. 01:21:17.956 : 第 15 章

  141. 01:26:48.244 : 第 16 章

  142. 01:32:24.705 : 第 17 章

  143. 01:37:28.551 : 第 18 章

  144. 01:43:37.336 : 第 19 章

  145. 01:50:27.329 : 第 20 章


文件下载


除非特别注明,本文『西游记之孙悟空三打白骨精[国语配音/粤语配音/中文字幕].The.Monkey.King.2.2016.1080p.BluRay.x265.DTS.2Audio 8.05GB』来源于互联网机器人自动抓取,非本站原创。 浮游电影网不对本文拥有版权,如有侵犯,请联系邮箱:fuyouu#yandex.com[#换成@]投诉。我们会在15个工作日内删除。 但烦请转载时请标明出处:“本文转载于『浮游电影网』,原文地址:https://www.fuyouu.com/13695.html

评论吧骚年!

发表你的见解   

昵称*

E-mail*(建议输入,以便收到博主回复的提示邮件)

验证码*

您可以使用eMule或eMule Mod(Windows)、aMule(Win、Linux、Mac)等软件下载eD2k链接。。
eMule收藏集(.emulecollection)文件是您选中的所有链接的列表文件。eMule可以直接下载它们。
按住SHIFT键选择可以选中多个选择框。
可用文件名和大小选择器来选择文件。
文件名选择器帮您根据文件名称或后缀来选择文件。不分大小写。
符号使用:
和:空格( )、+
不包含:-
或:|
转义:一对英文引号("");
匹配开头:^
匹配结尾:$
例如:
选中所有名称中包含有“eMule”或“0.49c”字眼,但不包含有“exe”字眼的:emule|0.49c -exe
选中所有名称的开头是“eMule”,结尾是“0.49c”的:^emule 0.49c$
选中所有名称中带有“eMule 0.49c”的(必须是“eMule 0.49c”,中间没有别的字符,不能是“eMule fake 0.49c”),需要转义:"emule 0.49c"
大小选择器帮您根据文件大小选择文件。