当前位置: 首页 >> 港台电影 >> 恭喜八婆[国语配音/粤语配音/中文字幕].Missbehavior.2019.1080p.BluRay.x265.10bit.DTS.2Audio 5.95GB >> 正文

恭喜八婆[国语配音/粤语配音/中文字幕].Missbehavior.2019.1080p.BluRay.x265.10bit.DTS.2Audio 5.95GB

2021年08月18日 00:19:28     电影发布:来源于网络     电影分类:港台电影     评论(0)    

恭喜八婆[国语配音/粤语配音/中文字幕].Missbehavior.2019.1080p.BluRay.x265.10bit.DTS.2Audio 5.95GB 喜剧片 港台电影  第1张

◎译 名 恭喜八婆 / Missbehavior

◎年 代 2019

◎产 地 中国香港

◎类 别 喜剧

◎语 言 粤语

◎上映日期 2019-01-31(中国香港)

◎IMDb链接 https://www.imdb.com/title/tt9638206/

◎豆瓣评分 5.1/10 (4485人评价)

◎豆瓣链接 https://movie.douban.com/subject/30367685/

◎片 长 90分钟

◎导 演 彭浩翔 Ho-Cheung Pang (id:1000148)

◎编 剧 彭浩翔 Ho-Cheung Pang (id:1000148)

刘翁 Sunny Lau (id:1380805)

◎演 员 陈逸宁 Yat Ning Chan (id:1038570)

陈静 Dada Chan (id:1316214)

梁咏琪 Gigi Leung (id:1000975)

林兆霞 June Lam (id:1319764)

徐天佑 Tien You Chui (id:1197244)

陈奂仁 Hanjin Tan (id:1314649)

林雪 Suet Lam (id:1274279)

丁可欣 Yanki Din (id:1381942)

谢贤 Yin Tse (id:1025536)

谷祖琳 Jolane Koo (id:1045825)

杨千嬅 Miriam Yeung (id:1173971)

梁洛施 Isabella Leong (id:1189924)

邹凯光 Matt Chow (id:1275121)

欧阳仲豪 Hou Dee (id:1405284)

邵音音 Yin-Yin Shaw (id:1297367)

曾国祥 Derek Tsang (id:1274534)

郭奕芯 Ashina Kwok (id:1354761)

汤加文 Carmen Tong (id:1358039)

陈康荣 Weng Chan (id:1405286)

马槜铿 Roberto Madan (id:1405290)

黄卓帆 Paul Guy (id:1405291)

李宇轩 Edward Lei (id:1405293)

霍俊邦 Jeffrey Fok (id:1405294)

司徒慧焯 Roy Szeto (id:1298762)

刘翁 Sunny Lau (id:1380805)

杨柳青 Wiyona Yeung (id:1375230)

吴文忻 Natalie Ng (id:1027665)

彭浩翔 Ho-Cheung Pang (id:1000148)

陈景辉 King Fai Chan (id:1431186)

曾咏汶 Wing Tsang (id:1335012)

彭浩翔 Ho-Cheung Pang (id:1000148)

翁玮盈 Janet Yung (id:1316419)

黄艾伦 Alan Wong (id:1318832)

◎标 签 香港 / 喜剧 / 2019 / 搞笑 / 黑色幽默 / 女性 / 剧情 / 友情

◎简 介

手机聊天群组「八婆」是由六个女生及两个男生组成,他们曾经一度很亲密,但因為当中的督察 May 发现自己男友和闺密陈逸寧有一腿;网络红人大波莲又将眾人的感情秘密写成书发表,种种原因,让这个群体的人愈分愈散,慢慢不再在群组中发言,最后让这个群组在手机中愈沉愈底。

直到有一天,群组中的一员、一向乐於助人的 June,因為在上班时候,将上司放在茶水间的一瓶人奶,不小心用在给客户饮用的咖啡中,因此必须要在下班前找回一枝人奶来顶包。在无计可施下,她想起这群曾经亲密的一班好友,於是决定找陈逸寧帮忙,而陈逸寧亦开始把群组成员逐一找回来。

虽然各人彼此充满著矛盾和恩怨,但大家為了帮忙 June,决定先把恩怨搁在一旁,尽力协助找奶,而在过程中,眾人把心中鬱闷很久的心结和问题,一次过爆发出来。让这天既在拯救 June,同时间亦在拯救一段已经早已逝去的友情。

  1. ##### MediaInfo ######

  2. General

  3. Unique ID : 54497656233591211699237025637018752196 (0x28FFDDE6DC964E39713DF0440415D4C4)

  4. Complete name : Missbehavior.2019.1080p.BluRay.x265.10bit.DTS.2Audio-10017@BBQDDQ.COM.mkv

  5. Format : Matroska

  6. Format version : Version 4

  7. File size : 5.95 GiB

  8. Duration : 1 h 28 min

  9. Overall bit rate : 9 676 kb/s

  10. Movie name : Missbehavior 2019

  11. Encoded date : UTC 2021-08-14 03:55:48

  12. Writing application : mkvmerge v60.0.0 ('Are We Copies?') 64-bit

  13. Writing library : libebml v1.4.2 + libmatroska v1.6.4

  14. Cover : Yes

  15. Attachments : cover.jpg


  16. Video

  17. ID : 1

  18. Format : HEVC

  19. Format/Info : High Efficiency Video Coding

  20. Format profile : Main 10@L4@Main

  21. Codec ID : V_MPEGH/ISO/HEVC

  22. Duration : 1 h 28 min

  23. Bit rate : 6 566 kb/s

  24. Width : 1 920 pixels

  25. Height : 816 pixels

  26. Display aspect ratio : 2.35:1

  27. Frame rate mode : Constant

  28. Frame rate : 24.000 FPS

  29. Color space : YUV

  30. Chroma subsampling : 4:2:0

  31. Bit depth : 10 bits

  32. Bits/(Pixel*Frame) : 0.175

  33. Stream size : 4.04 GiB (68%)

  34. Writing library : x265 3.5+2-g2b25c9ba0+45:[Windows][GCC 10.2.0][64 bit] Yuuki 10bit+8bit+12bit

  35. Encoding settings : rc=crf / crf=16.5000 / qcomp=0.60 / qpstep=4 / stats-write=0 / stats-read=0 / no-lossless / no-cu-lossless / aq-mode=3 / aq-strength=0.90 / cbqpoffs=0 / crqpoffs=0 / ipratio=1.40 / pbratio=1.30 / psy-rd=2.00 / psy-rdoq=0.00 / deblock=0:0 / ref=6 / limit-refs=1 / no-limit-modes / bframes=8 / b-adapt=2 / bframe-bias=0 / b-pyramid / b-intra / weightp / weightb / min-keyint=24 / max-keyint=240 / rc-lookahead=24 / gop-lookahead=0 / NTMzNTQ=uuDQuD2mJt9fsCf / scenecut=40 / hist-scenecut=0 / radl=0 / max-cu-size=64 / min-cu-size=8 / me=3 / subme=7 / merange=48 / rdoq-level=0 / rd=4 / rdpenalty=0 / dynamic-rd=0.00 / no-rd-refine / ----- / cutree / sao / no-rect / no-amp / no-open-gop / wpp / no-pmode / no-pme / no-psnr / no-ssim / nr-intra=0 / nr-inter=0 / no-constrained-intra / no-strong-intra-smoothing / max-tu-size=32 / tu-inter-depth=1 / tu-intra-depth=1 / limit-tu=0 / qg-size=32 / qpmax=69 / qpmin=0 / ----- / cpuid=533541111039 / frame-threads=4 / numa-pools=+ / log-level=2 / input-csp=1 / input-res=1920x816 / interlace=0 / level-idc=0 / high-tier=1 / uhd-bd=0 / no-allow-non-conformance / repeat-headers / aud / no-hrd / info / hash=0 / no-temporal-layers / lookahead-slices=0 / no-splice / no-intra-refresh / no-ssim-rd / signhide / no-tskip / max-merge=3 / temporal-mvp / no-frame-dup / no-hme / no-analyze-src-pics / no-sao-non-deblock / selective-sao=4 / early-skip / rskip / no-fast-intra / no-tskip-fast / no-splitrd-skip / zone-count=0 / no-strict-cbr / no-rc-grain / no-const-vbv / sar=0 / overscan=0 / videoformat=5 / range=0 / colorprim=2 / transfer=2 / colormatrix=2 / chromaloc=0 / display-window=0 / cll=0,0 / min-luma=0 / max-luma=1023 / log2-max-poc-lsb=8 / vui-timing-info / vui-hrd-info / slices=1 / no-opt-qp-pps / no-opt-ref-list-length-pps / no-multi-pass-opt-rps / scenecut-bias=0.05 / hist-threshold=0.03 / no-opt-cu-delta-qp / no-aq-motion / no-hdr10 / no-hdr10-opt / no-dhdr10-opt / no-idr-recovery-sei / analysis-reuse-level=0 / analysis-save-reuse-level=0 / analysis-load-reuse-level=0 / scale-factor=0 / refine-intra=0 / refine-inter=0 / refine-mv=1 / refine-ctu-distortion=0 / no-limit-sao / ctu-info=0 / no-lowpass-dct / refine-analysis-type=0 / copy-pic=1 / max-ausize-factor=1.0 / no-dynamic-refine / no-single-sei / no-hevc-aq / no-svt / no-field / qp-adaptation-range=1.00 / scenecut-aware-qp=0conformance-window-offsets / right=0 / bottom=0 / NTMzNTQ= / decoder-max-rate=0 / no-vbv-live-multi-pass

  36. Default : Yes

  37. Forced : No


  38. Audio #1

  39. ID : 2

  40. Format : DTS

  41. Format/Info : Digital Theater Systems

  42. Codec ID : A_DTS

  43. Duration : 1 h 28 min

  44. Bit rate mode : Constant

  45. Bit rate : 1 536 kb/s

  46. Channel(s) : 6 channels

  47. Channel layout : C L R Ls Rs LFE

  48. Sampling rate : 48.0 kHz

  49. Frame rate : 93.750 FPS (512 SPF)

  50. Bit depth : 16 bits

  51. Compression mode : Lossy

  52. Stream size : 968 MiB (16%)

  53. Title : Cantonese

  54. Language : Chinese

  55. Default : Yes

  56. Forced : No


  57. Audio #2

  58. ID : 3

  59. Format : DTS

  60. Format/Info : Digital Theater Systems

  61. Codec ID : A_DTS

  62. Duration : 1 h 28 min

  63. Bit rate mode : Constant

  64. Bit rate : 1 536 kb/s

  65. Channel(s) : 6 channels

  66. Channel layout : C L R Ls Rs LFE

  67. Sampling rate : 48.0 kHz

  68. Frame rate : 93.750 FPS (512 SPF)

  69. Bit depth : 16 bits

  70. Compression mode : Lossy

  71. Stream size : 968 MiB (16%)

  72. Title : Mandarin

  73. Language : Chinese

  74. Default : No

  75. Forced : No


  76. Text #1

  77. ID : 4

  78. ID in the original source medium : 4608 (0x1200)

  79. Format : PGS

  80. Muxing mode : zlib

  81. Codec ID : S_HDMV/PGS

  82. Codec ID/Info : Picture based subtitle format used on BDs/HD-DVDs

  83. Duration : 1 h 24 min

  84. Bit rate : 51.8 kb/s

  85. Count of elements : 2560

  86. Stream size : 31.2 MiB (1%)

  87. Title : cht

  88. Language : Chinese

  89. Default : Yes

  90. Forced : No

  91. Original source medium : Blu-ray


  92. Text #2

  93. ID : 5

  94. ID in the original source medium : 4609 (0x1201)

  95. Format : PGS

  96. Muxing mode : zlib

  97. Codec ID : S_HDMV/PGS

  98. Codec ID/Info : Picture based subtitle format used on BDs/HD-DVDs

  99. Duration : 1 h 21 min

  100. Bit rate : 56.8 kb/s

  101. Count of elements : 2523

  102. Stream size : 33.1 MiB (1%)

  103. Language : English

  104. Default : No

  105. Forced : No

  106. Original source medium : Blu-ray


  107. Menu

  108. 00:00:00.000 : Chapter 01

  109. 00:06:45.625 : Chapter 02

  110. 00:16:11.291 : Chapter 03

  111. 00:21:53.708 : Chapter 04

  112. 00:28:19.750 : Chapter 05

  113. 00:36:30.833 : Chapter 06

  114. 00:42:51.875 : Chapter 07

  115. 00:51:18.291 : Chapter 08

  116. 00:57:20.208 : Chapter 09

  117. 01:04:38.916 : Chapter 10

  118. 01:12:21.458 : Chapter 11

  119. 01:19:51.375 : Chapter 12


文件下载


除非特别注明,本文『恭喜八婆[国语配音/粤语配音/中文字幕].Missbehavior.2019.1080p.BluRay.x265.10bit.DTS.2Audio 5.95GB』来源于互联网机器人自动抓取,非本站原创。 浮游电影网不对本文拥有版权,如有侵犯,请联系邮箱:fuyouu#yandex.com[#换成@]投诉。我们会在15个工作日内删除。 但烦请转载时请标明出处:“本文转载于『浮游电影网』,原文地址:https://www.fuyouu.com/13691.html

评论吧骚年!

发表你的见解   

昵称*

E-mail*(建议输入,以便收到博主回复的提示邮件)

验证码*

您可以使用eMule或eMule Mod(Windows)、aMule(Win、Linux、Mac)等软件下载eD2k链接。。
eMule收藏集(.emulecollection)文件是您选中的所有链接的列表文件。eMule可以直接下载它们。
按住SHIFT键选择可以选中多个选择框。
可用文件名和大小选择器来选择文件。
文件名选择器帮您根据文件名称或后缀来选择文件。不分大小写。
符号使用:
和:空格( )、+
不包含:-
或:|
转义:一对英文引号("");
匹配开头:^
匹配结尾:$
例如:
选中所有名称中包含有“eMule”或“0.49c”字眼,但不包含有“exe”字眼的:emule|0.49c -exe
选中所有名称的开头是“eMule”,结尾是“0.49c”的:^emule 0.49c$
选中所有名称中带有“eMule 0.49c”的(必须是“eMule 0.49c”,中间没有别的字符,不能是“eMule fake 0.49c”),需要转义:"emule 0.49c"
大小选择器帮您根据文件大小选择文件。