当前位置: 首页 >> 动画电影 >> 石中剑[中文字幕].The.Sword.in.the.Stone.1963.1080p.BluRay.DTS.x265-10bit 7.64GB >> 正文

石中剑[中文字幕].The.Sword.in.the.Stone.1963.1080p.BluRay.DTS.x265-10bit 7.64GB

2021年08月18日 00:14:16     电影发布:来源于网络     电影分类:动画电影     评论(0)    

石中剑[中文字幕].The.Sword.in.the.Stone.1963.1080p.BluRay.DTS.x265 10bit 7.64GB 荒诞 家庭片 动画片 动画电影  第1张

◎译 名 石中剑 / La espada en la piedra

◎片 名 The Sword in the Stone

◎年 代 1963

◎产 地 美国

◎类 别 动画 / 家庭 / 荒诞

◎语 言 英语

◎上映日期 1963-12-25(美国)

◎IMDb链接 https://www.imdb.com/title/tt0057546/

◎豆瓣评分 8.0/10 (4526人评价)

◎豆瓣链接 https://movie.douban.com/subject/1306873/

◎片 长 80分钟

◎导 演 沃夫冈·雷瑟曼 Wolfgang Reitherman (id:1009748)

◎编 剧 比尔·皮特 Bill Peet (id:1005598)

T·H·怀特 T.H. White (id:1020590)

◎演 员 塞巴斯蒂安·卡伯特 Sebastian Cabot (id:1010696)

卡尔·斯温森 Karl Swenson (id:1156735)

瑞奇·索伦森 Rickie Sorensen (id:1152026)

玛莎·温特沃思 Martha Wentworth (id:1163962)

瑟尔·莱文斯克洛福特 Thurl Ravenscroft (id:1142172)

阿兰·纳皮尔 Alan Napier (id:1129377)

James MacDonald James MacDonald (id:1125013)

芭芭拉·乔·艾伦 Barbara Jo Allen (id:1057562)

诺曼·阿尔登 Norman Alden (id:1053510)

朱尼乌斯·马修斯 Junius Matthews (id:1115990)

华特·迪士尼 Walt Disney (id:1036330)

乔治·布伦斯 George Bruns (id:1012662)

肯·安德森 Ken Anderson (id:1057110)

◎标 签 动画 / 美国 / Disney / 迪斯尼 / 迪士尼 / 经典 / 石中剑 / 美国动画

◎简 介

当小华特从屋顶掉进了梅林法师的家中时,就已注定他传奇的命运了。神奇的梅林法师是如何教导华特的呢?不小心撞进女巫家的华特会不会有危险呢?伦敦的比武大赛就要开始了,谁有能力拔起石头中的剑便能成为国王,这个消息传遍全国,一些武士也希望自己有一天能成为国王,而纷纷到广场拔剑。对小华特而言,他的奇遇才刚开始,他轻而易举的将石中剑拔起,因之成为日后的亚瑟王。

◎获奖情况 (共1项)

第36届奥斯卡金像奖 (1964)

最佳改编配乐(提名)

└──乔治·布伦斯 (id:1012662)

  1. ##### MediaInfo ######

  2. General

  3. Unique ID : 223859547568741536535002476821006600898 (0xA869C7D5662B42E7DEA28C5F4A414AC2)

  4. Complete name : The.Sword.in.the.Stone.1963.1080p.BluRay.DTS.x265-10bit-10007@BBQDDQ.COM.mkv

  5. Format : Matroska

  6. Format version : Version 4

  7. File size : 7.64 GiB

  8. Duration : 1 h 19 min

  9. Overall bit rate : 13.7 Mb/s

  10. Movie name : The Sword in the Stone 1963 1080p BluRay DTS x265-10bit-10007@BBQDDQ.COM

  11. Encoded date : UTC 2021-08-16 22:49:49

  12. Writing application : mkvmerge v38.0.0 ('The Silent Type') 64-bit

  13. Writing library : libebml v1.3.9 + libmatroska v1.5.2


  14. Video

  15. ID : 1

  16. Format : HEVC

  17. Format/Info : High Efficiency Video Coding

  18. Format profile : Main 10@L5.1@High

  19. Codec ID : V_MPEGH/ISO/HEVC

  20. Duration : 1 h 19 min

  21. Bit rate : 12.2 Mb/s

  22. Width : 1 920 pixels

  23. Height : 1 080 pixels

  24. Display aspect ratio : 16:9

  25. Frame rate mode : Constant

  26. Frame rate : 23.976 (24000/1001/53354) FPS

  27. Color space : YUV

  28. Chroma subsampling : 4:2:0

  29. Bit depth : 10 bits

  30. Bits/(Pixel*Frame) : 0.245

  31. Stream size : 6.78 GiB (89%)

  32. Title : veryzayin@HDSky

  33. Writing library : x265 - H.265/HEVC codec

  34. Default : Yes

  35. Forced : No


  36. Audio

  37. ID : 2

  38. Format : DTS

  39. Format/Info : Digital Theater Systems

  40. Codec ID : A_DTS

  41. Duration : 1 h 19 min

  42. Bit rate mode : Constant

  43. Bit rate : 1 509 kb/s

  44. Channel(s) : 6 channels

  45. Channel layout : C L R Ls Rs LFE

  46. Sampling rate : 48.0 kHz

  47. Frame rate : 93.750 FPS (512 SPF)

  48. Bit depth : 24 bits

  49. Compression mode : Lossy

  50. Stream size : 861 MiB (11%)

  51. Title : English

  52. Language : English

  53. Default : Yes

  54. Forced : No


  55. Text #1

  56. ID : 3

  57. Format : PGS

  58. Muxing mode : zlib

  59. Codec ID : S_HDMV/PGS

  60. Codec ID/Info : Picture based subtitle format used on BDs/HD-DVDs

  61. Duration : 1 h 19 min

  62. Bit rate : 37.8 kb/s

  63. Count of elements : 2073

  64. Stream size : 21.5 MiB (0%)

  65. Title : CHS

  66. Language : Chinese

  67. Default : Yes

  68. Forced : No


  69. Text #2

  70. ID : 4

  71. Format : PGS

  72. Muxing mode : zlib

  73. Codec ID : S_HDMV/PGS

  74. Codec ID/Info : Picture based subtitle format used on BDs/HD-DVDs

  75. Duration : 1 h 19 min

  76. Bit rate : 38.7 kb/s

  77. Count of elements : 2073

  78. Stream size : 22.0 MiB (0%)

  79. Title : CHT

  80. Language : Chinese

  81. Default : No

  82. Forced : No


  83. Menu

  84. 00:00:00.000 : en:Chapter 01

  85. 00:01:39.891 : en:Chapter 02

  86. 00:08:26.798 : en:Chapter 03

  87. 00:12:46.474 : en:Chapter 04

  88. 00:16:59.393 : en:Chapter 05

  89. 00:22:07.785 : en:Chapter 06

  90. 00:25:02.209 : en:Chapter 07

  91. 00:30:25.532 : en:Chapter 08

  92. 00:39:07.720 : en:Chapter 09

  93. 00:43:00.703 : en:Chapter 10

  94. 00:49:12.116 : en:Chapter 11

  95. 00:54:51.121 : en:Chapter 12

  96. 00:56:45.694 : en:Chapter 13

  97. 00:59:46.333 : en:Chapter 14

  98. 01:04:05.592 : en:Chapter 15

  99. 01:10:17.588 : en:Chapter 16

  100. 01:15:37.575 : en:Chapter 17



文件下载


除非特别注明,本文『石中剑[中文字幕].The.Sword.in.the.Stone.1963.1080p.BluRay.DTS.x265-10bit 7.64GB』来源于互联网机器人自动抓取,非本站原创。 浮游电影网不对本文拥有版权,如有侵犯,请联系邮箱:fuyouu#yandex.com[#换成@]投诉。我们会在15个工作日内删除。 但烦请转载时请标明出处:“本文转载于『浮游电影网』,原文地址:https://www.fuyouu.com/13687.html

评论吧骚年!

发表你的见解   

昵称*

E-mail*(建议输入,以便收到博主回复的提示邮件)

验证码*

您可以使用eMule或eMule Mod(Windows)、aMule(Win、Linux、Mac)等软件下载eD2k链接。。
eMule收藏集(.emulecollection)文件是您选中的所有链接的列表文件。eMule可以直接下载它们。
按住SHIFT键选择可以选中多个选择框。
可用文件名和大小选择器来选择文件。
文件名选择器帮您根据文件名称或后缀来选择文件。不分大小写。
符号使用:
和:空格( )、+
不包含:-
或:|
转义:一对英文引号("");
匹配开头:^
匹配结尾:$
例如:
选中所有名称中包含有“eMule”或“0.49c”字眼,但不包含有“exe”字眼的:emule|0.49c -exe
选中所有名称的开头是“eMule”,结尾是“0.49c”的:^emule 0.49c$
选中所有名称中带有“eMule 0.49c”的(必须是“eMule 0.49c”,中间没有别的字符,不能是“eMule fake 0.49c”),需要转义:"emule 0.49c"
大小选择器帮您根据文件大小选择文件。