当前位置: 首页 >> 港台电影 >> 非分熟女[粤语配音/中文字幕].The.Lady.Improper.2019.1080p.BluRay.x265.DTS 3.07GB >> 正文

非分熟女[粤语配音/中文字幕].The.Lady.Improper.2019.1080p.BluRay.x265.DTS 3.07GB

2021年08月18日 00:13:10     电影发布:来源于网络     电影分类:港台电影     评论(0)    

非分熟女[粤语配音/中文字幕].The.Lady.Improper.2019.1080p.BluRay.x265.DTS 3.07GB 情色 剧情片 港台电影  第1张

◎译 名 非分熟女 / The Lady Improper

◎年 代 2019

◎产 地 中国香港

◎类 别 剧情 / 情色

◎语 言 粤语

◎上映日期 2019-04-04(中国香港)

◎IMDb链接 https://www.imdb.com/title/tt9838372/

◎豆瓣评分 5.0/10 (10159人评价)

◎豆瓣链接 https://movie.douban.com/subject/26752558/

◎片 长 108分钟

◎导 演 曾翠珊 Jessey Tsang Tsui-Shan (id:1319121)

◎编 剧 孙逸群 Link Sng (id:1375310)

曾翠珊 Jessey Tsang Tsui-Shan (id:1319121)

◎演 员 蔡卓妍 Charlene Choi (id:1041425)

吴慷仁 Kang Ren Wu (id:1275665)

吴浩康 Deep Ng (id:1313361)

叶童 Cecilia Yip (id:1033481)

刘永 Anthony Liu (id:1005636)

林德信 Alex Lam (id:1336855)

谈善言 Hedwig Tam (id:1366380)

何彦桦 Yin-Wah Ho (id:1397260)

太保 Po Tai (id:1312993)

岑珈其 Kaki Sham (id:1319715)

郭奕芯 Ashina Kwok (id:1354761)

张国强 Kwok Keung Cheung (id:1274568)

周俊伟 Lawrence Chou (id:1001466)

易健儿 Creamy Yick (id:1388627)

许素莹 So-ying Hui (id:1287123)

王紫逸 Ziyi Wang (id:1317348)

杨受成 Albert Yeung (id:1313455)

邵剑秋 Kim-Chau Shiu (id:1413263)

曾咏汶 Wing Tsang (id:1335012)

黄国雄 Samuel Wong (id:1426248)

陈迪凯 Water Chan Tik-Hoi (id:1345570)

◎标 签 蔡卓妍 / 香港 / 香港电影 / 女性 / 情色 / 2019 / 剧情 / 吴慷仁

◎简 介

小敏(蔡卓妍 饰)在满怀期待之中终于走入了婚姻的殿堂,然而,令她没有想到的是,等待着她的,将是长达5年的无性婚姻。丈夫的冷漠让小敏感到异常的压抑,起初她仍然相信一切都会好转,但随着时间的推移,她只觉得自己陷入了生活的流沙之中,正在慢慢窒息。

终于,小敏下定了离婚的决定。她失去了婚姻、工作和对未来的希望。小敏家里经营着一家破旧的餐厅,徘徊在随时倒闭的边缘。离婚后的小敏决定接手餐厅的运营工作,并且招聘了名叫家豪(吴慷仁 饰)的神秘厨师。家豪和小敏的前夫是完全相反的人,他热烈、大胆,无论做任何事情都充满了激情。

◎获奖情况 (共2项)

第38届香港电影金像奖 (2019)

最佳女主角(提名)

└──蔡卓妍 (id:1041425)

第11届澳门国际电影节 (2019)

金莲花奖 最佳女主角

└──蔡卓妍 (id:1041425)

  1. ##### MediaInfo ######

  2. General

  3. Unique ID : 227231727923307755481988052094864870810 (0xAAF33D295A2CA1E4990DFC4495C44D9A)

  4. Complete name : The.Lady.Improper.2019.1080p.BluRay.x265.DTS-10017@BBQDDQ.COM.mkv

  5. Format : Matroska

  6. Format version : Version 4

  7. File size : 3.07 GiB

  8. Duration : 1 h 47 min

  9. Overall bit rate : 4 080 kb/s

  10. Encoded date : UTC 2021-08-13 17:46:13

  11. Writing application : mkvmerge v58.0.0 ('Supper's Ready') 64-bit

  12. Writing library : libebml v1.4.2 + libmatroska v1.6.4


  13. Video

  14. ID : 1

  15. Format : HEVC

  16. Format/Info : High Efficiency Video Coding

  17. Format profile : Main 10@L4@Main

  18. Codec ID : V_MPEGH/ISO/HEVC

  19. Duration : 1 h 47 min

  20. Bit rate : 2 547 kb/s

  21. Width : 1 920 pixels

  22. Height : 808 pixels

  23. Display aspect ratio : 2.40:1

  24. Frame rate mode : Constant

  25. Frame rate : 24.000 FPS

  26. Color space : YUV

  27. Chroma subsampling : 4:2:0

  28. Bit depth : 10 bits

  29. Bits/(Pixel*Frame) : 0.068

  30. Stream size : 1.91 GiB (62%)

  31. Writing library : x265 3.5+2-g2b25c9ba0+45:[Windows][GCC 10.2.0][64 bit] Yuuki 10bit+8bit+12bit

  32. Encoding settings : rc=crf / crf=17.0000 / qcomp=0.60 / qpstep=4 / stats-write=0 / stats-read=0 / no-lossless / no-cu-lossless / aq-mode=3 / aq-strength=0.90 / cbqpoffs=0 / crqpoffs=0 / ipratio=1.40 / pbratio=1.30 / psy-rd=2.00 / psy-rdoq=0.00 / deblock=0:0 / ref=6 / limit-refs=1 / no-limit-modes / bframes=8 / b-adapt=2 / bframe-bias=0 / b-pyramid / b-intra / weightp / weightb / min-keyint=24 / max-keyint=240 / rc-lookahead=24 / gop-lookahead=0 / NTMzNTQ=uuDQuD2mJt9fsCf / scenecut=40 / hist-scenecut=0 / radl=0 / max-cu-size=64 / min-cu-size=8 / me=3 / subme=7 / merange=48 / rdoq-level=0 / rd=4 / rdpenalty=0 / dynamic-rd=0.00 / no-rd-refine / ----- / cutree / sao / no-rect / no-amp / no-open-gop / wpp / no-pmode / no-pme / no-psnr / no-ssim / nr-intra=0 / nr-inter=0 / no-constrained-intra / no-strong-intra-smoothing / max-tu-size=32 / tu-inter-depth=1 / tu-intra-depth=1 / limit-tu=0 / qg-size=32 / qpmax=69 / qpmin=0 / ----- / cpuid=533541111039 / frame-threads=4 / numa-pools=+ / log-level=2 / input-csp=1 / input-res=1920x808 / interlace=0 / level-idc=0 / high-tier=1 / uhd-bd=0 / no-allow-non-conformance / no-repeat-headers / aud / no-hrd / info / hash=0 / no-temporal-layers / lookahead-slices=0 / no-splice / no-intra-refresh / no-ssim-rd / signhide / no-tskip / max-merge=3 / temporal-mvp / no-frame-dup / no-hme / no-analyze-src-pics / no-sao-non-deblock / selective-sao=4 / early-skip / rskip / no-fast-intra / no-tskip-fast / no-splitrd-skip / zone-count=0 / no-strict-cbr / no-rc-grain / no-const-vbv / sar=0 / overscan=0 / videoformat=5 / range=0 / colorprim=2 / transfer=2 / colormatrix=2 / chromaloc=0 / display-window=0 / cll=0,0 / min-luma=0 / max-luma=1023 / log2-max-poc-lsb=8 / vui-timing-info / vui-hrd-info / slices=1 / no-opt-qp-pps / no-opt-ref-list-length-pps / no-multi-pass-opt-rps / scenecut-bias=0.05 / hist-threshold=0.03 / no-opt-cu-delta-qp / no-aq-motion / no-hdr10 / no-hdr10-opt / no-dhdr10-opt / no-idr-recovery-sei / analysis-reuse-level=0 / analysis-save-reuse-level=0 / analysis-load-reuse-level=0 / scale-factor=0 / refine-intra=0 / refine-inter=0 / refine-mv=1 / refine-ctu-distortion=0 / no-limit-sao / ctu-info=0 / no-lowpass-dct / refine-analysis-type=0 / copy-pic=1 / max-ausize-factor=1.0 / no-dynamic-refine / no-single-sei / no-hevc-aq / no-svt / no-field / qp-adaptation-range=1.00 / scenecut-aware-qp=0conformance-window-offsets / right=0 / bottom=0 / NTMzNTQ= / decoder-max-rate=0 / no-vbv-live-multi-pass

  33. Language : English

  34. Default : Yes

  35. Forced : No


  36. Audio

  37. ID : 2

  38. Format : DTS

  39. Format/Info : Digital Theater Systems

  40. Codec ID : A_DTS

  41. Duration : 1 h 47 min

  42. Bit rate mode : Constant

  43. Bit rate : 1 510 kb/s

  44. Channel(s) : 6 channels

  45. Channel layout : C L R Ls Rs LFE

  46. Sampling rate : 48.0 kHz

  47. Frame rate : 93.750 FPS (512 SPF)

  48. Bit depth : 24 bits

  49. Compression mode : Lossy

  50. Stream size : 1.14 GiB (37%)

  51. Language : Chinese

  52. Default : Yes

  53. Forced : No


  54. Text #1

  55. ID : 3

  56. ID in the original source medium : 4609 (0x1201)

  57. Format : PGS

  58. Muxing mode : zlib

  59. Codec ID : S_HDMV/PGS

  60. Codec ID/Info : Picture based subtitle format used on BDs/HD-DVDs

  61. Duration : 1 h 40 min

  62. Bit rate : 19.5 kb/s

  63. Count of elements : 1566

  64. Stream size : 14.1 MiB (0%)

  65. Title : zhs

  66. Language : Chinese

  67. Default : Yes

  68. Forced : No

  69. Original source medium : Blu-ray


  70. Text #2

  71. ID : 4

  72. ID in the original source medium : 4608 (0x1200)

  73. Format : PGS

  74. Muxing mode : zlib

  75. Codec ID : S_HDMV/PGS

  76. Codec ID/Info : Picture based subtitle format used on BDs/HD-DVDs

  77. Duration : 1 h 40 min

  78. Bit rate : 20.0 kb/s

  79. Count of elements : 1566

  80. Stream size : 14.4 MiB (0%)

  81. Title : zht

  82. Language : Chinese

  83. Default : No

  84. Forced : No

  85. Original source medium : Blu-ray


  86. Text #3

  87. ID : 5

  88. ID in the original source medium : 4610 (0x1202)

  89. Format : PGS

  90. Muxing mode : zlib

  91. Codec ID : S_HDMV/PGS

  92. Codec ID/Info : Picture based subtitle format used on BDs/HD-DVDs

  93. Duration : 1 h 40 min

  94. Bit rate : 25.7 kb/s

  95. Count of elements : 1593

  96. Stream size : 18.5 MiB (1%)

  97. Language : English

  98. Default : Yes

  99. Forced : No

  100. Original source medium : Blu-ray


  101. Menu

  102. 00:00:00.000 : 第 01 章

  103. 00:06:02.833 : 第 02 章

  104. 00:17:32.208 : 第 03 章

  105. 00:28:29.291 : 第 04 章

  106. 00:35:11.166 : 第 05 章

  107. 00:44:26.708 : 第 06 章

  108. 00:54:00.041 : 第 07 章

  109. 01:04:46.541 : 第 08 章

  110. 01:16:31.000 : 第 09 章

  111. 01:23:13.666 : 第 10 章

  112. 01:30:47.250 : 第 11 章

  113. 01:39:09.833 : 第 12 章


文件下载


除非特别注明,本文『非分熟女[粤语配音/中文字幕].The.Lady.Improper.2019.1080p.BluRay.x265.DTS 3.07GB』来源于互联网机器人自动抓取,非本站原创。 浮游电影网不对本文拥有版权,如有侵犯,请联系邮箱:fuyouu#yandex.com[#换成@]投诉。我们会在15个工作日内删除。 但烦请转载时请标明出处:“本文转载于『浮游电影网』,原文地址:https://www.fuyouu.com/13686.html

评论吧骚年!

发表你的见解   

昵称*

E-mail*(建议输入,以便收到博主回复的提示邮件)

验证码*

您可以使用eMule或eMule Mod(Windows)、aMule(Win、Linux、Mac)等软件下载eD2k链接。。
eMule收藏集(.emulecollection)文件是您选中的所有链接的列表文件。eMule可以直接下载它们。
按住SHIFT键选择可以选中多个选择框。
可用文件名和大小选择器来选择文件。
文件名选择器帮您根据文件名称或后缀来选择文件。不分大小写。
符号使用:
和:空格( )、+
不包含:-
或:|
转义:一对英文引号("");
匹配开头:^
匹配结尾:$
例如:
选中所有名称中包含有“eMule”或“0.49c”字眼,但不包含有“exe”字眼的:emule|0.49c -exe
选中所有名称的开头是“eMule”,结尾是“0.49c”的:^emule 0.49c$
选中所有名称中带有“eMule 0.49c”的(必须是“eMule 0.49c”,中间没有别的字符,不能是“eMule fake 0.49c”),需要转义:"emule 0.49c"
大小选择器帮您根据文件大小选择文件。