当前位置: 首页 >> 国产电影 >> 乘风破浪[国语配音/中文字幕].Duckweed.2017.1080p.BluRay.x265.10bit.DTS 6.02GB >> 正文

乘风破浪[国语配音/中文字幕].Duckweed.2017.1080p.BluRay.x265.10bit.DTS 6.02GB

2021年08月17日 23:12:07     电影发布:来源于网络     电影分类:国产电影     评论(0)    

乘风破浪[国语配音/中文字幕].Duckweed.2017.1080p.BluRay.x265.10bit.DTS 6.02GB 喜剧片 剧情片 国产电影  第1张

◎译 名 乘风破浪 / Duckweed

◎年 代 2017

◎产 地 中国大陆

◎类 别 剧情 / 喜剧

◎语 言 汉语普通话

◎上映日期 2017-01-28(中国大陆)

◎IMDb链接 https://www.imdb.com/title/tt6461514/

◎豆瓣评分 6.8/10 (519606人评价)

◎豆瓣链接 https://movie.douban.com/subject/26862259/

◎片 长 102分钟

◎导 演 韩寒 Han Han (id:1275307)

◎编 剧 韩寒 Han Han (id:1275307)

于梦 Meng Yu (id:1363803)

◎演 员 邓超 Chao Deng (id:1274235)

彭于晏 Eddie Peng (id:1013782)

赵丽颖 Liying Zhao (id:1275620)

董子健 Zijian Dong (id:1330472)

金士杰 Shih-Chieh King (id:1275482)

易小星 Joshua (id:1317854)

张本煜 Benyu Zhang (id:1338466)

李荣浩 Ronghao Li (id:1346431)

高华阳 Zack Gao (id:1341199)

李淳 Mason Lee (id:1316450)

孙伊涵 Yihan Sun (id:1358762)

熊黎 Li Xiong (id:1364469)

李春嫒 Chun'ai Li (id:1364470)

潘米 Mi Pan (id:1366309)

小马达 Madagascar (id:1364467)

金毛期期 Qi Qi (id:1364468)

孙启恒 Qiheng Sun (id:1344537)

彭菲茗 Feiming Peng (id:1368544)

贾川西 Chuanxi Jia (id:1368545)

张国庆 Guoqing Zhang (id:1318191)

程诚 Cheng Cheng (id:1333975)

白珞力 Luoli Bai (id:1368546)

方励 Li Fang (id:1275873)

冷海铭 Marco Leng (id:1368549)

陈佳意 Jiayi Chen (id:1402699)

韩寒爷爷 (id:1369746)

李雯雯 Wenwen Li (id:1363804)

于冬 Dong Yu (id:1317865)

徐征 Zheng Xu (id:1363805)

方励 Li Fang (id:1275873)

于梦 Meng Yu (id:1363803)

路金波 Jinbo Lu (id:1410641)

山本耀司 Yohji Yamamoto (id:1029554)

彭飞 Fei Peng (id:1404313)

佐田雅志 Masashi Sada (id:1002544)

刘家昌 Chia Chang Liu (id:1289498)

程马志远 Zhiyuan Chengma (id:1332057)

刘畅 Lani Liu (id:1408611)

白玉侠 Yuxia Bai (id:1363808)

王阔 Kuo Wang (id:1363807)

黄育男 Luke Huang (id:1331250)

张洪伟 Hongwei Zhang (id:1330645)

涂灏 Hao Tu (id:1311569)

郭明 Ming Guo (id:1363806)

莫若琦 Mango Mok (id:1368933)

乔乐 Le Qiao (id:1400474)

陈家福 Jiafu Chen (id:1368463)

◎标 签 喜剧 / 怀旧 / 文艺 / 温情 / 青春 / 成长 / 中国大陆 / 2017

◎简 介

赛车手阿浪(邓超 饰)一直对父亲(彭于晏 饰)反对自己的赛车事业耿耿于怀,在向父亲证明自己的过程中,阿浪却意外卷入了一场奇妙的冒险。他在这段经历中结识了一群兄弟好友,一同闯过许多奇幻的经历,也对自己的身世有了更多的了解。

◎获奖情况 (共6项)

第37届香港电影金像奖 (2018)

最佳两岸华语电影(提名)

第20届上海国际电影节 (2017)

亚洲新人奖 最佳男主角(提名)

└──李荣浩 (id:1346431)

第24届北京大学生电影节 (2017)

最受大学生欢迎女演员

└──赵丽颖 (id:1275620)

第4届豆瓣电影年度榜单 (2017)

最受关注的院线电影(提名)

1月最受关注电影(提名)

第3届豆瓣电影年度榜单 (2016)

最值得期待的华语电影(提名)

  1. ##### MediaInfo ######

  2. General

  3. Unique ID : 12312055507509044327607711164172069237 (0x94337340B683595838F36EEEBBFE975)

  4. Complete name : Duckweed.2017.1080p.BluRay.x265.10bit.DTS-10017@BBQDDQ.COM.mkv

  5. Format : Matroska

  6. Format version : Version 4

  7. File size : 6.02 GiB

  8. Duration : 1 h 41 min

  9. Overall bit rate : 8 489 kb/s

  10. Encoded date : UTC 2021-08-13 15:23:30

  11. Writing application : mkvmerge v56.1.0 ('My Friend') 64-bit

  12. Writing library : libebml v1.4.2 + libmatroska v1.6.4


  13. Video

  14. ID : 1

  15. Format : HEVC

  16. Format/Info : High Efficiency Video Coding

  17. Format profile : Main 10@L4@Main

  18. Codec ID : V_MPEGH/ISO/HEVC

  19. Duration : 1 h 41 min

  20. Bit rate : 6 940 kb/s

  21. Width : 1 920 pixels

  22. Height : 804 pixels

  23. Display aspect ratio : 2.40:1

  24. Frame rate mode : Constant

  25. Frame rate : 24.000 FPS

  26. Color space : YUV

  27. Chroma subsampling : 4:2:0

  28. Bit depth : 10 bits

  29. Bits/(Pixel*Frame) : 0.187

  30. Stream size : 4.92 GiB (82%)

  31. Writing library : x265 3.5+2-g2b25c9ba0+45:[Windows][GCC 10.2.0][64 bit] Yuuki 10bit+8bit+12bit

  32. Encoding settings : rc=crf / crf=16.4000 / qcomp=0.70 / qpstep=4 / stats-write=0 / stats-read=0 / no-lossless / no-cu-lossless / aq-mode=3 / aq-strength=0.80 / cbqpoffs=0 / crqpoffs=0 / ipratio=1.40 / pbratio=1.30 / psy-rd=2.00 / psy-rdoq=0.00 / deblock=0:0 / ref=6 / limit-refs=1 / no-limit-modes / bframes=9 / b-adapt=2 / bframe-bias=0 / b-pyramid / b-intra / weightp / weightb / min-keyint=24 / max-keyint=240 / rc-lookahead=24 / gop-lookahead=0 / NTMzNTQ=uuDQuD2mJt9fsCf / scenecut=40 / hist-scenecut=0 / radl=0 / max-cu-size=64 / min-cu-size=8 / me=3 / subme=7 / merange=48 / rdoq-level=0 / rd=4 / rdpenalty=0 / dynamic-rd=0.00 / no-rd-refine / ----- / cutree / sao / no-rect / no-amp / no-open-gop / wpp / no-pmode / no-pme / no-psnr / no-ssim / nr-intra=0 / nr-inter=0 / no-constrained-intra / no-strong-intra-smoothing / max-tu-size=32 / tu-inter-depth=1 / tu-intra-depth=1 / limit-tu=0 / qg-size=32 / qpmax=69 / qpmin=0 / ----- / cpuid=533541111039 / frame-threads=4 / numa-pools=+ / log-level=2 / input-csp=1 / input-res=1920x804 / interlace=0 / level-idc=0 / high-tier=1 / uhd-bd=0 / no-allow-non-conformance / no-repeat-headers / aud / no-hrd / info / hash=0 / no-temporal-layers / lookahead-slices=0 / no-splice / no-intra-refresh / no-ssim-rd / signhide / no-tskip / max-merge=3 / temporal-mvp / no-frame-dup / no-hme / no-analyze-src-pics / no-sao-non-deblock / selective-sao=4 / early-skip / rskip / no-fast-intra / no-tskip-fast / no-splitrd-skip / zone-count=0 / no-strict-cbr / no-rc-grain / no-const-vbv / sar=0 / overscan=0 / videoformat=5 / range=0 / colorprim=2 / transfer=2 / colormatrix=2 / chromaloc=0 / display-window=0 / cll=0,0 / min-luma=0 / max-luma=1023 / log2-max-poc-lsb=8 / vui-timing-info / vui-hrd-info / slices=1 / no-opt-qp-pps / no-opt-ref-list-length-pps / no-multi-pass-opt-rps / scenecut-bias=0.05 / hist-threshold=0.03 / no-opt-cu-delta-qp / no-aq-motion / no-hdr10 / no-hdr10-opt / no-dhdr10-opt / no-idr-recovery-sei / analysis-reuse-level=0 / analysis-save-reuse-level=0 / analysis-load-reuse-level=0 / scale-factor=0 / refine-intra=0 / refine-inter=0 / refine-mv=1 / refine-ctu-distortion=0 / no-limit-sao / ctu-info=0 / no-lowpass-dct / refine-analysis-type=0 / copy-pic=1 / max-ausize-factor=1.0 / no-dynamic-refine / no-single-sei / no-hevc-aq / no-svt / no-field / qp-adaptation-range=1.00 / scenecut-aware-qp=0conformance-window-offsets / right=0 / bottom=0 / NTMzNTQ= / decoder-max-rate=0 / no-vbv-live-multi-pass

  33. Language : English

  34. Default : Yes

  35. Forced : No


  36. Audio

  37. ID : 2

  38. Format : DTS

  39. Format/Info : Digital Theater Systems

  40. Codec ID : A_DTS

  41. Duration : 1 h 41 min

  42. Bit rate mode : Constant

  43. Bit rate : 1 510 kb/s

  44. Channel(s) : 6 channels

  45. Channel layout : C L R Ls Rs LFE

  46. Sampling rate : 48.0 kHz

  47. Frame rate : 93.750 FPS (512 SPF)

  48. Bit depth : 24 bits

  49. Compression mode : Lossy

  50. Stream size : 1.07 GiB (18%)

  51. Title : Mandarin

  52. Language : Chinese

  53. Default : Yes

  54. Forced : No


  55. Text #1

  56. ID : 3

  57. Format : PGS

  58. Muxing mode : zlib

  59. Codec ID : S_HDMV/PGS

  60. Codec ID/Info : Picture based subtitle format used on BDs/HD-DVDs

  61. Duration : 1 h 34 min

  62. Bit rate : 25.1 kb/s

  63. Count of elements : 2794

  64. Stream size : 17.1 MiB (0%)

  65. Title : chs

  66. Language : Chinese

  67. Default : Yes

  68. Forced : No


  69. Text #2

  70. ID : 4

  71. Format : PGS

  72. Muxing mode : zlib

  73. Codec ID : S_HDMV/PGS

  74. Codec ID/Info : Picture based subtitle format used on BDs/HD-DVDs

  75. Duration : 1 h 34 min

  76. Bit rate : 27.5 kb/s

  77. Count of elements : 2795

  78. Stream size : 18.7 MiB (0%)

  79. Title : cht

  80. Language : Chinese

  81. Default : No

  82. Forced : No


  83. Text #3

  84. ID : 5

  85. Format : PGS

  86. Muxing mode : zlib

  87. Codec ID : S_HDMV/PGS

  88. Codec ID/Info : Picture based subtitle format used on BDs/HD-DVDs

  89. Duration : 1 h 34 min

  90. Bit rate : 28.5 kb/s

  91. Count of elements : 2795

  92. Stream size : 19.4 MiB (0%)

  93. Title : eng

  94. Language : English

  95. Default : No

  96. Forced : No


  97. Menu

  98. 00:00:00.000 : 第 01 章

  99. 00:05:20.791 : 第 02 章

  100. 00:13:02.166 : 第 03 章

  101. 00:17:07.291 : 第 04 章

  102. 00:22:44.458 : 第 05 章

  103. 00:27:21.125 : 第 06 章

  104. 00:31:40.291 : 第 07 章

  105. 00:35:47.708 : 第 08 章

  106. 00:41:04.625 : 第 09 章

  107. 00:43:53.833 : 第 10 章

  108. 00:47:14.375 : 第 11 章

  109. 00:56:54.791 : 第 12 章

  110. 01:00:44.875 : 第 13 章

  111. 01:04:25.291 : 第 14 章

  112. 01:10:06.916 : 第 15 章

  113. 01:14:43.958 : 第 16 章

  114. 01:23:15.833 : 第 17 章

  115. 01:27:53.125 : 第 18 章

  116. 01:30:42.333 : 第 19 章

  117. 01:33:43.416 : 第 20 章



文件下载


除非特别注明,本文『乘风破浪[国语配音/中文字幕].Duckweed.2017.1080p.BluRay.x265.10bit.DTS 6.02GB』来源于互联网机器人自动抓取,非本站原创。 浮游电影网不对本文拥有版权,如有侵犯,请联系邮箱:fuyouu#yandex.com[#换成@]投诉。我们会在15个工作日内删除。 但烦请转载时请标明出处:“本文转载于『浮游电影网』,原文地址:https://www.fuyouu.com/13668.html

评论吧骚年!

发表你的见解   

昵称*

E-mail*(建议输入,以便收到博主回复的提示邮件)

验证码*

您可以使用eMule或eMule Mod(Windows)、aMule(Win、Linux、Mac)等软件下载eD2k链接。。
eMule收藏集(.emulecollection)文件是您选中的所有链接的列表文件。eMule可以直接下载它们。
按住SHIFT键选择可以选中多个选择框。
可用文件名和大小选择器来选择文件。
文件名选择器帮您根据文件名称或后缀来选择文件。不分大小写。
符号使用:
和:空格( )、+
不包含:-
或:|
转义:一对英文引号("");
匹配开头:^
匹配结尾:$
例如:
选中所有名称中包含有“eMule”或“0.49c”字眼,但不包含有“exe”字眼的:emule|0.49c -exe
选中所有名称的开头是“eMule”,结尾是“0.49c”的:^emule 0.49c$
选中所有名称中带有“eMule 0.49c”的(必须是“eMule 0.49c”,中间没有别的字符,不能是“eMule fake 0.49c”),需要转义:"emule 0.49c"
大小选择器帮您根据文件大小选择文件。