当前位置: 首页 >> 日韩电影 >> 雨和你的故事[简繁字幕].Endless.Rain.2021.1080p.WEB-DL.H265.AAC 3.97GB >> 正文

雨和你的故事[简繁字幕].Endless.Rain.2021.1080p.WEB-DL.H265.AAC 3.97GB

2021年08月17日 11:32:58     电影发布:来源于网络     电影分类:日韩电影     评论(0)    

雨和你的故事[简繁字幕].Endless.Rain.2021.1080p.WEB DL.H265.AAC 3.97GB 爱情片 剧情片 日韩电影  第1张

◎译 名 雨和你的故事 / 雨与你的故事 / 如果雨之后(台) / Endless Rain

◎片 名 ?? ??? ???

◎年 代 2021

◎产 地 韩国

◎类 别 剧情 / 爱情

◎语 言 韩语

◎上映日期 2021-04-28(韩国)

◎IMDb链接 https://www.imdb.com/title/tt14540764/

◎豆瓣评分 6.7/10 (559人评价)

◎豆瓣链接 https://movie.douban.com/subject/34928072/

◎片 长 117分钟

◎导 演 曹溱模 Jin-mo Cho (id:1345724)

◎编 剧 刘圣叶 Sung-Hyub Yu (id:1359477)

◎演 员 千禹熙 Cheon Woo-Hee (id:1331105)

姜河那 Ha-neul Kang (id:1330012)

姜素拉 So-Ra Kang (id:1315766)

林周焕 Joo-hwan Lim (id:1275862)

李雪 Lee Seol (id:1401326)

姜英锡 Kang Young-seok (id:1381263)

成民秀 Min-soo Sung (id:1386229)

李杭娜 Hang-na Lee (id:1358604)

吴贞媛 Jeong-won Woo (id:1439554)

高宇临 Ko Woo-rim (id:1381659)

崔明彬 Myung-bin Choi (id:1381282)

高健汉 Gun-han Ko (id:1381250)

柳惠琳 Hye-rin Ryu (id:1383747)

朴世贤 Se Hyun Park (id:1433116)

玉珠理 Joo-ri Ok (id:1399889)

曹溱模 Jin-mo Cho (id:1345724)

金成钧 Sung-Kyun Kim (id:1324507)

◎标 签 韩国 / 爱情 / 韩国电影 / 姜河那 / 青春 / 2021 / 姜素拉 / 千玗嬉

◎简 介

讲述了长时间思念对方却无法相见的男女之间的故事

  1. ##### MediaInfo ######

  2. General

  3. Unique ID : 39586348570947286699675593941243137203 (0x1DC80DAC4A05D92CBB93D61F18000CB3)

  4. Complete name : Endless.Rain.2021.1080p.WEB-DL.H265.AAC-10001@BBQDDQ.COM.mkv

  5. Format : Matroska

  6. Format version : Version 4

  7. File size : 3.97 GiB

  8. Duration : 1 h 57 min

  9. Overall bit rate : 4 847 kb/s

  10. Encoded date : UTC 2021-08-15 05:00:17

  11. Writing application : mkvmerge v56.1.0 ('My Friend') 64-bit

  12. Writing library : libebml v1.4.2 + libmatroska v1.6.4


  13. Video

  14. ID : 1

  15. Format : HEVC

  16. Format/Info : High Efficiency Video Coding

  17. Format profile : Main@L4@Main

  18. Codec ID : V_MPEGH/ISO/HEVC

  19. Duration : 1 h 57 min

  20. Bit rate : 4 655 kb/s

  21. Width : 1 920 pixels

  22. Height : 1 080 pixels

  23. Display aspect ratio : 16:9

  24. Frame rate mode : Constant

  25. Frame rate : 24.000 FPS

  26. Color space : YUV

  27. Chroma subsampling : 4:2:0

  28. Bit depth : 8 bits

  29. Bits/(Pixel*Frame) : 0.094

  30. Stream size : 3.81 GiB (96%)

  31. Default : Yes

  32. Forced : No


  33. Audio

  34. ID : 2

  35. Format : AAC LC

  36. Format/Info : Advanced Audio Codec Low Complexity

  37. Codec ID : A_AAC-2

  38. Duration : 1 h 57 min

  39. Bit rate : 192 kb/s

  40. Channel(s) : 2 channels

  41. Channel layout : L R

  42. Sampling rate : 44.1 kHz

  43. Frame rate : 43.066 FPS (1024 SPF)

  44. Compression mode : Lossy

  45. Stream size : 159 MiB (4%)

  46. Language : Korean

  47. Default : Yes

  48. Forced : No


  49. Text #1

  50. ID : 3

  51. Format : UTF-8

  52. Codec ID : S_TEXT/UTF8

  53. Codec ID/Info : UTF-8 Plain Text

  54. Duration : 1 h 52 min

  55. Bit rate : 36 b/s

  56. Count of elements : 1210

  57. Stream size : 30.3 KiB (0%)

  58. Title : Chinese Simplified

  59. Language : Chinese

  60. Default : Yes

  61. Forced : No


  62. Text #2

  63. ID : 4

  64. Format : UTF-8

  65. Codec ID : S_TEXT/UTF8

  66. Codec ID/Info : UTF-8 Plain Text

  67. Duration : 1 h 52 min

  68. Bit rate : 36 b/s

  69. Count of elements : 1210

  70. Stream size : 30.3 KiB (0%)

  71. Title : Chinese Traditional

  72. Language : Chinese

  73. Default : No

  74. Forced : No


  75. Text #3

  76. ID : 5

  77. Format : UTF-8

  78. Codec ID : S_TEXT/UTF8

  79. Codec ID/Info : UTF-8 Plain Text

  80. Duration : 1 h 53 min

  81. Bit rate : 36 b/s

  82. Count of elements : 1074

  83. Stream size : 30.0 KiB (0%)

  84. Title : English

  85. Language : English

  86. Default : No

  87. Forced : No



文件下载


除非特别注明,本文『雨和你的故事[简繁字幕].Endless.Rain.2021.1080p.WEB-DL.H265.AAC 3.97GB』来源于互联网机器人自动抓取,非本站原创。 浮游电影网不对本文拥有版权,如有侵犯,请联系邮箱:fuyouu#yandex.com[#换成@]投诉。我们会在15个工作日内删除。 但烦请转载时请标明出处:“本文转载于『浮游电影网』,原文地址:https://www.fuyouu.com/13659.html

评论吧骚年!

发表你的见解   

昵称*

E-mail*(建议输入,以便收到博主回复的提示邮件)

验证码*

您可以使用eMule或eMule Mod(Windows)、aMule(Win、Linux、Mac)等软件下载eD2k链接。。
eMule收藏集(.emulecollection)文件是您选中的所有链接的列表文件。eMule可以直接下载它们。
按住SHIFT键选择可以选中多个选择框。
可用文件名和大小选择器来选择文件。
文件名选择器帮您根据文件名称或后缀来选择文件。不分大小写。
符号使用:
和:空格( )、+
不包含:-
或:|
转义:一对英文引号("");
匹配开头:^
匹配结尾:$
例如:
选中所有名称中包含有“eMule”或“0.49c”字眼,但不包含有“exe”字眼的:emule|0.49c -exe
选中所有名称的开头是“eMule”,结尾是“0.49c”的:^emule 0.49c$
选中所有名称中带有“eMule 0.49c”的(必须是“eMule 0.49c”,中间没有别的字符,不能是“eMule fake 0.49c”),需要转义:"emule 0.49c"
大小选择器帮您根据文件大小选择文件。