当前位置: 首页 >> 日韩电影 >> OK老板娘[简繁字幕].Okay!.Madam.2020.1080p.WEB-DL.H265.AAC 1.61GB >> 正文

OK老板娘[简繁字幕].Okay!.Madam.2020.1080p.WEB-DL.H265.AAC 1.61GB

2021年08月17日 11:31:33     电影发布:来源于网络     电影分类:日韩电影     评论(0)    

OK老板娘[简繁字幕].Okay!.Madam.2020.1080p.WEB DL.H265.AAC 1.61GB 喜剧片 日韩电影  第1张

◎译 名 OK老板娘 / 特务打爆机(港) / 特务搞飞机(台) / OK! 夫人 / Okay! Madam / Ok! Madam

◎片 名 ??? ??

◎年 代 2020

◎产 地 韩国

◎类 别 喜剧

◎语 言 韩语

◎上映日期 2020-08-12(韩国)

◎IMDb链接 https://www.imdb.com/title/tt12572792/

◎豆瓣评分 6.5/10 (5933人评价)

◎豆瓣链接 https://movie.douban.com/subject/35127317/

◎片 长 101分钟

◎导 演 李澈河 Cheol-ha Lee (id:1242438)

◎演 员 严正化 Jeong-hwa Eom (id:1023400)

朴圣雄 Seong-Woong Park (id:1327932)

李相仑 Sang-yoon Lee (id:1326773)

裴正南 Jung-nam Bae (id:1386436)

李善彬 Sun-bin Lee (id:1362611)

周锡泰 Suk-tae Joo (id:1375770)

郭振锡 Jin-seok Kwak (id:1387820)

全秀景 Soo-kyung Chun (id:1340280)

金汉钟 Kim Han-jong (id:1382565)

金秉玉 Byeong-ok Kim (id:1319357)

尹志温 Ji-on Yoon (id:1403143)

朴智一 Ji-il Park (id:1376739)

尹大烈 Dae-yeol Yoon (id:1399216)

闵彩恩 Chae-eun Min (id:1452193)

金圭白 Kim Kyu Baek (id:1453701)

◎标 签 喜剧 / 韩国 / 搞笑 / 特工 / 动作 / 2020 / 家庭 / 犯罪

◎简 介

该片讲述了一对夫妇在生平第一次海外旅行中,意外的卷入了劫持飞机的事件,他们收起平凡的过去,通过一直隐藏的内功展开营救作战的故事。

  1. ##### MediaInfo ######

  2. General

  3. Unique ID : 189368611250119073605799846664406030878 (0x8E771161759DA9C44A459583ECA7DA1E)

  4. Complete name : Okay!.Madam.2020.1080p.WEB-DL.H265.AAC-10001@BBQDDQ.COM.mkv

  5. Format : Matroska

  6. Format version : Version 4

  7. File size : 1.60 GiB

  8. Duration : 1 h 36 min

  9. Overall bit rate : 2 370 kb/s

  10. Encoded date : UTC 2021-08-15 05:10:48

  11. Writing application : mkvmerge v56.1.0 ('My Friend') 64-bit

  12. Writing library : libebml v1.4.2 + libmatroska v1.6.4


  13. Video

  14. ID : 1

  15. Format : HEVC

  16. Format/Info : High Efficiency Video Coding

  17. Format profile : Main@L4@Main

  18. Codec ID : V_MPEGH/ISO/HEVC

  19. Duration : 1 h 36 min

  20. Bit rate : 2 178 kb/s

  21. Width : 1 920 pixels

  22. Height : 1 032 pixels

  23. Display aspect ratio : 1.85:1

  24. Frame rate mode : Constant

  25. Frame rate : 24.000 FPS

  26. Color space : YUV

  27. Chroma subsampling : 4:2:0

  28. Bit depth : 8 bits

  29. Bits/(Pixel*Frame) : 0.046

  30. Stream size : 1.47 GiB (92%)

  31. Default : Yes

  32. Forced : No


  33. Audio

  34. ID : 2

  35. Format : AAC LC

  36. Format/Info : Advanced Audio Codec Low Complexity

  37. Codec ID : A_AAC-2

  38. Duration : 1 h 36 min

  39. Bit rate : 192 kb/s

  40. Channel(s) : 2 channels

  41. Channel layout : L R

  42. Sampling rate : 44.1 kHz

  43. Frame rate : 43.066 FPS (1024 SPF)

  44. Compression mode : Lossy

  45. Stream size : 131 MiB (8%)

  46. Language : Korean

  47. Default : Yes

  48. Forced : No


  49. Text #1

  50. ID : 3

  51. Format : UTF-8

  52. Codec ID : S_TEXT/UTF8

  53. Codec ID/Info : UTF-8 Plain Text

  54. Duration : 1 h 32 min

  55. Bit rate : 43 b/s

  56. Count of elements : 1314

  57. Stream size : 29.2 KiB (0%)

  58. Title : Chinese Simplified

  59. Language : Chinese

  60. Default : Yes

  61. Forced : No


  62. Text #2

  63. ID : 4

  64. Format : UTF-8

  65. Codec ID : S_TEXT/UTF8

  66. Codec ID/Info : UTF-8 Plain Text

  67. Duration : 1 h 32 min

  68. Bit rate : 43 b/s

  69. Count of elements : 1314

  70. Stream size : 29.2 KiB (0%)

  71. Title : Chinese Traditional

  72. Language : Chinese

  73. Default : No

  74. Forced : No


  75. Text #3

  76. ID : 5

  77. Format : UTF-8

  78. Codec ID : S_TEXT/UTF8

  79. Codec ID/Info : UTF-8 Plain Text

  80. Duration : 1 h 32 min

  81. Bit rate : 47 b/s

  82. Count of elements : 1314

  83. Stream size : 32.0 KiB (0%)

  84. Title : English

  85. Language : English

  86. Default : No

  87. Forced : No



文件下载


除非特别注明,本文『OK老板娘[简繁字幕].Okay!.Madam.2020.1080p.WEB-DL.H265.AAC 1.61GB』来源于互联网机器人自动抓取,非本站原创。 浮游电影网不对本文拥有版权,如有侵犯,请联系邮箱:fuyouu#yandex.com[#换成@]投诉。我们会在15个工作日内删除。 但烦请转载时请标明出处:“本文转载于『浮游电影网』,原文地址:https://www.fuyouu.com/13658.html

评论吧骚年!

发表你的见解   

昵称*

E-mail*(建议输入,以便收到博主回复的提示邮件)

验证码*

您可以使用eMule或eMule Mod(Windows)、aMule(Win、Linux、Mac)等软件下载eD2k链接。。
eMule收藏集(.emulecollection)文件是您选中的所有链接的列表文件。eMule可以直接下载它们。
按住SHIFT键选择可以选中多个选择框。
可用文件名和大小选择器来选择文件。
文件名选择器帮您根据文件名称或后缀来选择文件。不分大小写。
符号使用:
和:空格( )、+
不包含:-
或:|
转义:一对英文引号("");
匹配开头:^
匹配结尾:$
例如:
选中所有名称中包含有“eMule”或“0.49c”字眼,但不包含有“exe”字眼的:emule|0.49c -exe
选中所有名称的开头是“eMule”,结尾是“0.49c”的:^emule 0.49c$
选中所有名称中带有“eMule 0.49c”的(必须是“eMule 0.49c”,中间没有别的字符,不能是“eMule fake 0.49c”),需要转义:"emule 0.49c"
大小选择器帮您根据文件大小选择文件。