当前位置: 首页 >> 欧美电影 >> 人生遥控器[中文字幕].Click.2006.1080p.BluRay.DD5.1.x265-10bit 7.60GB >> 正文

人生遥控器[中文字幕].Click.2006.1080p.BluRay.DD5.1.x265-10bit 7.60GB

2021年08月17日 11:30:12     电影发布:来源于网络     电影分类:欧美电影     评论(0)    

人生遥控器[中文字幕].Click.2006.1080p.BluRay.DD5.1.x265 10bit 7.60GB 家庭片 奇幻片 喜剧片 剧情片 欧美电影  第1张

◎译 名 人生遥控器 / 命运自选台(港) / 命运好好玩(台) / 神奇遥控器

◎片 名 Click

◎年 代 2006

◎产 地 美国

◎类 别 剧情 / 喜剧 / 家庭 / 奇幻

◎语 言 英语

◎上映日期 2007-04-20(中国大陆) / 2006-06-23(美国)

◎IMDb链接 https://www.imdb.com/title/tt0389860/

◎豆瓣评分 7.7/10 (125098人评价)

◎豆瓣链接 https://movie.douban.com/subject/1474185/

◎片 长 107 分钟

◎导 演 弗兰克·克拉斯 Frank Coraci (id:1005041)

◎编 剧 史蒂夫·科伦 Steve Koren (id:1320600)

马克·奥基夫 Mark O'Keefe (id:1410662)

◎演 员 亚当·桑德勒 Adam Sandler (id:1054523)

凯特·贝金赛尔 Kate Beckinsale (id:1003487)

克里斯托弗·沃肯 Christopher Walken (id:1053574)

大卫·哈塞尔霍夫 David Hasselhoff (id:1010601)

亨利·温克勒 Henry Winkler (id:1041140)

朱莉·卡夫娜 Julie Kavner (id:1049754)

西恩·奥斯汀 Sean Astin (id:1031818)

约瑟夫·卡斯坦诺 Joseph Castanon (id:1181475)

乔纳·希尔 Jonah Hill (id:1036302)

杰克·霍夫曼 Jake Hoffman (id:1032175)

塔图姆·麦克凯恩 Tatum McCann (id:1307696)

洛琳·尼科尔森 Lorraine Nicholson (id:1000212)

凯蒂·卡西迪 Katie Cassidy (id:1036318)

卡梅隆·莫纳汉 Cameron Monaghan (id:1192535)

詹妮佛·库里奇 Jennifer Coolidge (id:1049511)

瑞秋·德拉彻 Rachel Dratch (id:1032014)

苏菲·蒙克 Sophie Monk (id:1036482)

米歇尔·隆巴多 Michelle Lombardo (id:1183845)

珍娜·克拉默 Jana Kramer (id:1189778)

尼克·斯旺森 Nick Swardson (id:1027834)

西德尼·甘尼斯 Sidney Ganis (id:1014575)

井上英治 Eiji Inoue (id:1421934)

弗兰克·克拉斯 Frank Coraci (id:1005041)

提姆·赫利希 Tim Herlihy (id:1028003)

Ireesha Ireesha (id:1348203)

Emilio Cast (id:1227171)

莉莉·莫·辛 Lily Mo Sheen (id:1004937)

卡罗琳·赫尼塞 Carolyn Hennesy (id:1100298)

Elliott Cho Elliott Cho (id:1210070)

Robert Jones Robert Jones (id:1310569)

马克·可汗 Marco Khan (id:1321919)

多洛丝·奥瑞沃丹 Dolores O'riordan (id:1126880)

Sally Insul Sally Insul (id:1216617)

特蕊萨·巴雷拉 Theresa Barrera (id:1343760)

Abra Chouinard (id:1236736)

布莱克·克拉克 Blake Clark (id:1006981)

泰瑞·克鲁斯 Terry Crews (id:1022577)

达隆·亨廷顿 Dalon Huntington (id:1204567)

珍·约翰逊 Jen Johnson (id:1230283)

詹姆斯·厄尔·琼斯 James Earl Jones (id:1013800)

特雷西·金 Traycee King (id:1236684)

罗伯·施奈德 Rob Schneider (id:1040519)

比利·斯洛特 Billy Slaughter (id:1205890)

克莱斯特·塞森 Celeste Thorson (id:1239184)

张杰 Jie Zhang (id:1320632)

尼尔·H·莫瑞兹 Neal H. Moritz (id:1019194)

提姆·赫利希 Tim Herlihy (id:1028003)

亚当·桑德勒 Adam Sandler (id:1054523)

鲁伯特·格雷格森-威廉姆斯 Rupert Gregson-Williams (id:1285429)

迪安·塞姆勒 Dean Semler (id:1276583)

Jeff Gourson Jeff Gourson (id:1285246)

Roger Mussenden Roger Mussenden (id:1292799)

加里·费迪斯 Gary Fettis (id:1283648)

Jeffrey Mossa Jeffrey Mossa (id:1292618)

比尔·科尔索 Bill Corso (id:1281317)

里克·贝克 Rick Baker (id:1036707)

史蒂夫·普劳蒂 Steve Prouty (id:1294954)

Thomas Real Thomas Real (id:1295323)

Jamie Kelman Jamie Kelman (id:1288362)

Yoichi Art Sakamoto Yoichi Art Sakamoto (id:1140584)

Bill Sturgeon Bill Sturgeon (id:1298591)

辻一弘 Kazuhiro Tsuji (id:1156237)

Margaret Prentice Margaret Prentice (id:1278536)

西尔维亚·纳瓦 Sylvia Nava (id:1292952)

克林顿·维恩 Clinton Wayne (id:1055970)

西德妮·科内尔 Cydney Cornell (id:1281289)

吉姆·瑞吉尔 Jim Rygiel (id:1296402)

莱斯·伯恩斯汀 Les Bernstien (id:1278498)

帕特里克·克兰斯 Patrick Clancey (id:1071903)

芮妮·泰姆尼 Renée Tymn (id:1067517)

David Taritero David Taritero (id:1298923)

彼得·特拉弗斯 Peter G. Travers (id:1299485)

凯里·维尔加斯 Carey Villegas (id:1300081)

埃德森·威廉姆斯 Edson Williams (id:1043237)

科林·施特劳斯 Colin Strause (id:1041429)

Roxanne Dorman Roxanne Dorman (id:1081123)

Debbie Denise Debbie Denise (id:1276381)

约翰·布蒂乌 John Butiu (id:1199461)

Blaine Kennison Blaine Kennison (id:1288414)

Greg Groenekamp Greg Groenekamp (id:1285507)

Andrew Frankel Andrew Frankel (id:1213748)

Chris Antonini Chris Antonini (id:1218346)

吉姆·戈尔曼 Jim Gorman (id:1285203)

丹尼塔·斯劳格赫特尔 Danita Slaughter (id:1239865)

克里斯·英格索尔 Chris Ingersoll (id:1102738)

格雷格·施特劳斯 Greg Strause (id:1014448)

胡安·卡洛斯·巴尔加斯 Juan Carlos Vargas (id:1038055)

Bruce Jurgens Bruce Jurgens (id:1012898)

凯西·艾伦 Casey Allen (id:1020582)

吉姆·瑞吉尔 Jim Rygiel (id:1296402)

◎标 签 喜剧 / 美国 / 人生 / 亲情 / 科幻 / 美国电影 / 2006 / adamSandler

◎简 介

建筑师迈可·纽曼(亚当·桑德勒 饰)每天都过着忙碌的生活。事业有成的他纵使有个美满的家庭,美丽贤惠的妻子唐娜(凯特·贝金赛尔 饰),可爱的一对儿女,他总是没时间好好享受天伦之乐,为了晋升而逃避甚至忘记了与家人们的约定。

迈可正寻找一个万能遥控器,一个神秘身份的老板莫蒂( 克里斯托弗·沃肯 饰)给了他一个。当迈可回到家尝试使用后才发觉了这个遥控的神奇功能:他可以利用这个遥控器控制自己的生活时间,这对他来说是件极其兴奋的事情,他可以逃过那些繁琐的事,随心所欲到达自己想要的时段。

直到有一天,这个遥控器不再受他的控制了,他的生活变得乱七八糟,时间迅速向前走,而他也错过了很多重要的事情:他迅速的成为公司的高层、他的妻子离开了他与别人结婚、父亲逝世、儿子结婚等等,他才后悔自己故意错过的东西,而他也来到了弥留之际,他努力要告诫儿子不要重蹈覆辙,多把时间留给家人…...

◎获奖情况 (共2项)

第79届奥斯卡金像奖 (2007)

最佳化妆(提名)

第16届MTV电影奖 (2007)

MTV电影奖 最佳喜剧表演(提名)

└──亚当·桑德勒 (id:1054523)

  1. ##### MediaInfo ######

  2. General

  3. Unique ID : 62131584769655014136316861664336617988 (0x2EBE1BA3446D9977BE3EAD9832992204)

  4. Complete name : Click.2006.1080p.BluRay.DD5.1.x265-10bit-10007@BBQDDQ.COM.mkv

  5. Format : Matroska

  6. Format version : Version 4

  7. File size : 7.60 GiB

  8. Duration : 1 h 47 min

  9. Overall bit rate mode : Variable

  10. Overall bit rate : 10.1 Mb/s

  11. Movie name : Click 2006 1080p BluRay DD5.1 x265-10bit-10007@BBQDDQ.COM

  12. Encoded date : UTC 2021-08-08 14:53:49

  13. Writing application : mkvmerge v38.0.0 ('The Silent Type') 64-bit

  14. Writing library : libebml v1.3.9 + libmatroska v1.5.2


  15. Video

  16. ID : 1

  17. Format : HEVC

  18. Format/Info : High Efficiency Video Coding

  19. Format profile : Main 10@L5.1@High

  20. Codec ID : V_MPEGH/ISO/HEVC

  21. Duration : 1 h 47 min

  22. Bit rate : 8 431 kb/s

  23. Width : 1 920 pixels

  24. Height : 1 040 pixels

  25. Display aspect ratio : 1.85:1

  26. Frame rate mode : Constant

  27. Frame rate : 23.976 (24000/1001/53354) FPS

  28. Color space : YUV

  29. Chroma subsampling : 4:2:0

  30. Bit depth : 10 bits

  31. Bits/(Pixel*Frame) : 0.176

  32. Stream size : 6.33 GiB (83%)

  33. Title : biki@HDSky

  34. Writing library : x265 - H.265/HEVC codec

  35. Default : Yes

  36. Forced : No


  37. Audio

  38. ID : 2

  39. Format : MLP FBA

  40. Format/Info : Meridian Lossless Packing FBA

  41. Commercial name : Dolby TrueHD

  42. Codec ID : A_TRUEHD

  43. Duration : 1 h 47 min

  44. Bit rate mode : Variable

  45. Bit rate : 1 597 kb/s

  46. Maximum bit rate : 2 970 kb/s

  47. Channel(s) : 6 channels

  48. Channel layout : L R C LFE Ls Rs

  49. Sampling rate : 48.0 kHz

  50. Frame rate : 1 200.000 FPS (40 SPF)

  51. Compression mode : Lossless

  52. Stream size : 1.20 GiB (16%)

  53. Title : English

  54. Language : English

  55. Default : Yes

  56. Forced : No


  57. Text

  58. ID : 3

  59. Format : PGS

  60. Muxing mode : zlib

  61. Codec ID : S_HDMV/PGS

  62. Codec ID/Info : Picture based subtitle format used on BDs/HD-DVDs

  63. Duration : 1 h 39 min

  64. Bit rate : 35.4 kb/s

  65. Count of elements : 3066

  66. Stream size : 25.2 MiB (0%)

  67. Title : CHS

  68. Language : Chinese

  69. Default : Yes

  70. Forced : No



文件下载


除非特别注明,本文『人生遥控器[中文字幕].Click.2006.1080p.BluRay.DD5.1.x265-10bit 7.60GB』来源于互联网机器人自动抓取,非本站原创。 浮游电影网不对本文拥有版权,如有侵犯,请联系邮箱:fuyouu#yandex.com[#换成@]投诉。我们会在15个工作日内删除。 但烦请转载时请标明出处:“本文转载于『浮游电影网』,原文地址:https://www.fuyouu.com/13657.html

评论吧骚年!

发表你的见解   

昵称*

E-mail*(建议输入,以便收到博主回复的提示邮件)

验证码*

您可以使用eMule或eMule Mod(Windows)、aMule(Win、Linux、Mac)等软件下载eD2k链接。。
eMule收藏集(.emulecollection)文件是您选中的所有链接的列表文件。eMule可以直接下载它们。
按住SHIFT键选择可以选中多个选择框。
可用文件名和大小选择器来选择文件。
文件名选择器帮您根据文件名称或后缀来选择文件。不分大小写。
符号使用:
和:空格( )、+
不包含:-
或:|
转义:一对英文引号("");
匹配开头:^
匹配结尾:$
例如:
选中所有名称中包含有“eMule”或“0.49c”字眼,但不包含有“exe”字眼的:emule|0.49c -exe
选中所有名称的开头是“eMule”,结尾是“0.49c”的:^emule 0.49c$
选中所有名称中带有“eMule 0.49c”的(必须是“eMule 0.49c”,中间没有别的字符,不能是“eMule fake 0.49c”),需要转义:"emule 0.49c"
大小选择器帮您根据文件大小选择文件。