当前位置: 首页 >> 日韩电影 >> 后宫:帝王之妾[中文字幕].The.Concubine.2012.1080p.BluRay.DTS.x265-10bit 9.56GB >> 正文

后宫:帝王之妾[中文字幕].The.Concubine.2012.1080p.BluRay.DTS.x265-10bit 9.56GB

2021年08月17日 11:27:46     电影发布:来源于网络     电影分类:日韩电影     评论(0)    

后宫:帝王之妾[中文字幕].The.Concubine.2012.1080p.BluRay.DTS.x265 10bit 9.56GB 情色 历史 剧情片 日韩电影  第1张

◎译 名 后宫:帝王之妾 / 满宫春(港) / 后宫:色欲天下(台) / 后宫 / The Concubine

◎片 名 ??: ??? ?

◎年 代 2012

◎产 地 韩国

◎类 别 剧情 / 情色 / 历史

◎语 言 韩语

◎上映日期 2012-06-06(韩国)

◎IMDb链接 https://www.imdb.com/title/tt2544120/

◎豆瓣评分 5.7/10 (18398人评价)

◎豆瓣链接 https://movie.douban.com/subject/6900094/

◎片 长 122分钟

◎导 演 金大胜 Dae-seung Kim (id:1322200)

◎编 剧 金大胜 Dae-seung Kim (id:1322200)

金美正 Mi-jung Kim (id:1327827)

◎演 员 金民俊 Min-jun Kim (id:1024360)

曹如晶 Yeo-Jeong Jo (id:1205984)

金东旭 Dong-wook Kim (id:1316185)

曹恩智 Eun-ji Jo (id:1006294)

朴智英 Park Ji-yeong (id:1313692)

李璟荣 Kyeong-yeong Lee (id:1039491)

朴哲民 Cheol-min Park (id:1218750)

安锡焕 Seok-Hwan An (id:1319202)

朴敏贞 Min-jung Park (id:1397858)

郑俊元 Joon-won Jeong (id:1376163)

林鍾允 Lim Jong-yoon (id:1381684)

吴铉京 Hyun-kyung Oh (id:1353867)

曹永旭 Yeong-wook Jo (id:1287735)

Ki-seok Hwang Ki-seok Hwang (id:1302109)

金尚范 Sang-bum Kim (id:1288546)

曹近铉 Geun-hyeon Jo (id:1327939)

◎标 签 情色 / 韩国 / 韩国电影 / 色情电影 / 古装 / 赵茹珍 / 剧情 / 2012

◎简 介

圣源(金东旭 Dong-wook Kim 饰)还是世子时,在大臣申参判家偶遇其女华妍(赵茹珍 Yeo-Jeong Jo 饰),一见倾心。但其母后为了自己的政治野心将华妍许配给了他同父异母的哥哥作王后,圣源因此远走他乡。华妍本与家中的仆人权侑(金民俊 Min-jun Kim 饰)是一对恋人,无意间得知将要入宫为妃,因而私奔却被父亲抓到,为了保全恋人性命无奈入宫。五年后殿下病重,在母后的阴谋和安排下圣源大君回宫继承了王位当了傀儡皇帝,华妍的父亲也在政变中遭遇其母后迫害被处死。此时的圣源大君遇到已成为皇嫂的华研,权利的束缚更燃烧了他心中禁忌的欲望。而保住性命的家奴权侑私奔失败后却被申参叛阉割,为了登上权力的顶峰报仇雪恨进宫当了内侍,忍辱偷生。以宫廷斗争为背景,三人命运交织,在爱欲和权力,激情与仇恨的矛盾冲突下酝酿着一场悲剧。

◎获奖情况 (共2项)

第49届百想艺术大赏 (2013)

电影类 最佳女配角

└──曹恩智 (id:1006294)

电影类 最佳人气女演员(提名)

  1. ##### MediaInfo ######

  2. General

  3. Unique ID : 105151328779441214588818810355400915440 (0x4F1B68C67F8EFDE462AEEB02F88539F0)

  4. Complete name : The.Concubine.2012.1080p.BluRay.DTS.x265-10bit-10007@BBQDDQ.COM.mkv

  5. Format : Matroska

  6. Format version : Version 4

  7. File size : 9.56 GiB

  8. Duration : 2 h 2 min

  9. Overall bit rate : 11.2 Mb/s

  10. Movie name : The Concubine 2012 1080p BluRay DTS x265-10bit-10007@BBQDDQ.COM

  11. Encoded date : UTC 2021-08-16 06:08:03

  12. Writing application : mkvmerge v38.0.0 ('The Silent Type') 64-bit

  13. Writing library : libebml v1.3.9 + libmatroska v1.5.2


  14. Video

  15. ID : 1

  16. Format : HEVC

  17. Format/Info : High Efficiency Video Coding

  18. Format profile : Main 10@L5.1@High

  19. Codec ID : V_MPEGH/ISO/HEVC

  20. Duration : 2 h 2 min

  21. Bit rate : 9 649 kb/s

  22. Width : 1 920 pixels

  23. Height : 1 036 pixels

  24. Display aspect ratio : 1.85:1

  25. Frame rate mode : Constant

  26. Frame rate : 23.976 (24000/1001/53354) FPS

  27. Color space : YUV

  28. Chroma subsampling : 4:2:0

  29. Bit depth : 10 bits

  30. Bits/(Pixel*Frame) : 0.202

  31. Stream size : 8.24 GiB (86%)

  32. Title : veryzayin@HDSky

  33. Writing library : x265 - H.265/HEVC codec

  34. Default : Yes

  35. Forced : No


  36. Audio

  37. ID : 2

  38. Format : DTS

  39. Format/Info : Digital Theater Systems

  40. Codec ID : A_DTS

  41. Duration : 2 h 2 min

  42. Bit rate mode : Constant

  43. Bit rate : 1 509 kb/s

  44. Channel(s) : 6 channels

  45. Channel layout : C L R Ls Rs LFE

  46. Sampling rate : 48.0 kHz

  47. Frame rate : 93.750 FPS (512 SPF)

  48. Bit depth : 24 bits

  49. Compression mode : Lossy

  50. Stream size : 1.29 GiB (13%)

  51. Title : Korean

  52. Language : Korean

  53. Default : Yes

  54. Forced : No


  55. Text #1

  56. ID : 3

  57. Format : PGS

  58. Muxing mode : zlib

  59. Codec ID : S_HDMV/PGS

  60. Codec ID/Info : Picture based subtitle format used on BDs/HD-DVDs

  61. Duration : 1 h 55 min

  62. Bit rate : 25.7 kb/s

  63. Count of elements : 2178

  64. Stream size : 21.2 MiB (0%)

  65. Title : CHS

  66. Language : Chinese

  67. Default : Yes

  68. Forced : No


  69. Text #2

  70. ID : 4

  71. Format : PGS

  72. Muxing mode : zlib

  73. Codec ID : S_HDMV/PGS

  74. Codec ID/Info : Picture based subtitle format used on BDs/HD-DVDs

  75. Duration : 1 h 55 min

  76. Bit rate : 26.2 kb/s

  77. Count of elements : 2178

  78. Stream size : 21.7 MiB (0%)

  79. Title : CHT

  80. Language : Chinese

  81. Default : No

  82. Forced : No


  83. Menu

  84. 00:00:00.000 : en:Chapter 01

  85. 00:06:11.204 : en:Chapter 02

  86. 00:11:13.214 : en:Chapter 03

  87. 00:23:01.005 : en:Chapter 04

  88. 00:31:12.412 : en:Chapter 05

  89. 00:38:13.875 : en:Chapter 06

  90. 00:47:49.325 : en:Chapter 07

  91. 00:58:01.728 : en:Chapter 08

  92. 01:04:14.934 : en:Chapter 09

  93. 01:12:41.899 : en:Chapter 10

  94. 01:21:24.171 : en:Chapter 11

  95. 01:29:54.306 : en:Chapter 12

  96. 01:35:49.911 : en:Chapter 13

  97. 01:41:02.640 : en:Chapter 14

  98. 01:48:54.069 : en:Chapter 15

  99. 01:58:03.535 : en:Chapter 16



文件下载


除非特别注明,本文『后宫:帝王之妾[中文字幕].The.Concubine.2012.1080p.BluRay.DTS.x265-10bit 9.56GB』来源于互联网机器人自动抓取,非本站原创。 浮游电影网不对本文拥有版权,如有侵犯,请联系邮箱:fuyouu#yandex.com[#换成@]投诉。我们会在15个工作日内删除。 但烦请转载时请标明出处:“本文转载于『浮游电影网』,原文地址:https://www.fuyouu.com/13655.html

评论吧骚年!

发表你的见解   

昵称*

E-mail*(建议输入,以便收到博主回复的提示邮件)

验证码*

您可以使用eMule或eMule Mod(Windows)、aMule(Win、Linux、Mac)等软件下载eD2k链接。。
eMule收藏集(.emulecollection)文件是您选中的所有链接的列表文件。eMule可以直接下载它们。
按住SHIFT键选择可以选中多个选择框。
可用文件名和大小选择器来选择文件。
文件名选择器帮您根据文件名称或后缀来选择文件。不分大小写。
符号使用:
和:空格( )、+
不包含:-
或:|
转义:一对英文引号("");
匹配开头:^
匹配结尾:$
例如:
选中所有名称中包含有“eMule”或“0.49c”字眼,但不包含有“exe”字眼的:emule|0.49c -exe
选中所有名称的开头是“eMule”,结尾是“0.49c”的:^emule 0.49c$
选中所有名称中带有“eMule 0.49c”的(必须是“eMule 0.49c”,中间没有别的字符,不能是“eMule fake 0.49c”),需要转义:"emule 0.49c"
大小选择器帮您根据文件大小选择文件。