当前位置: 首页 >> 动画电影 >> 俑之城[国语音轨].Realm.of.Terracotta.2021.2160p.WEB-DL.H265.DDP2.0 12.58GB >> 正文

俑之城[国语音轨].Realm.of.Terracotta.2021.2160p.WEB-DL.H265.DDP2.0 12.58GB

2021年08月17日 11:10:13     电影发布:来源于网络     电影分类:动画电影     评论(0)    

俑之城[国语音轨].Realm.of.Terracotta.2021.2160p.WEB DL.H265.DDP2.0 12.58GB 动画片 冒险片 奇幻片 动画电影  第1张

◎译 名 俑之城 / Realm of Terracotta

◎年 代 2021

◎产 地 中国大陆

◎类 别 动画 / 奇幻 / 冒险

◎语 言 汉语普通话

◎上映日期 2021-07-09(中国大陆) / 2021-06-20(上海国际电影节)

◎IMDb链接 https://www.imdb.com/title/tt10075380/

◎豆瓣评分 6.1/10 (12188人评价)

◎豆瓣链接 https://movie.douban.com/subject/30336307/

◎片 长 111分钟

◎导 演 丁亮 Liang Ding (id:1336904)

林永长 Yongchang Lin (id:1352577)

◎编 剧 徐芸 Yun Xu (id:1336906)

崔铁志 Tiezhi Cui (id:1336908)

◎演 员 朱光祖 Guangzu Zhu (id:1448679)

张茗 Ming Zhang (id:1410984)

周子瑜 Ziyu Zhou (id:1399035)

谭笑 Xiao Tan (id:1336930)

刘沛 Pei Liu (id:1338297)

刘道强 (id:1416582)

尚琳琳 (id:1416583)

陈娇艳 (id:1416584)

◎标 签 国漫 / 动画 / 古风 / 奇幻 / 中国大陆 / 3D / 神话 / 2021

◎简 介

地下世界,千奇百怪,不仅生活着兵马俑,还有各种各样的青铜文物复活的青铜兽和一种叫做“地犼”的地底原生生物。

地犼与俑的战斗旷日持久,男主角蒙远是地下秦陵中一打杂的杂役俑,他和神秘少女史玉合作抓捕地犼、经历险境,不料却发现地犼与兵俑战斗不息的谜团,却因此遭遇更大危机......

◎获奖情况 (共1项)

第24届上海国际电影节 (2021)

金爵奖 最佳动画片(提名)

  1. ##### MediaInfo ######

  2. General

  3. Complete name : 俑之城.Realm.of.Terracotta.2021.2160p.WEB-DL.H265.DDP2.0-10006@BBQDDQ.COM.mp4

  4. Format : MPEG-4

  5. Format profile : Base Media

  6. Codec ID : isom (isom/iso2/mp41)

  7. File size : 12.6 GiB

  8. Duration : 1 h 51 min

  9. Overall bit rate : 16.2 Mb/s

  10. Writing application : OurTV Multimedia Platform


  11. Video

  12. ID : 1

  13. Format : HEVC

  14. Format/Info : High Efficiency Video Coding

  15. Format profile : Main@L5@Main

  16. Codec ID : hev1

  17. Codec ID/Info : High Efficiency Video Coding

  18. Duration : 1 h 51 min

  19. Bit rate : 15.8 Mb/s

  20. Width : 3 840 pixels

  21. Height : 1 608 pixels

  22. Display aspect ratio : 2.40:1

  23. Frame rate mode : Constant

  24. Frame rate : 25.000 FPS

  25. Color space : YUV

  26. Chroma subsampling : 4:2:0

  27. Bit depth : 8 bits

  28. Bits/(Pixel*Frame) : 0.102

  29. Stream size : 12.2 GiB (97%)

  30. Codec configuration box : hvcC


  31. Audio #1

  32. ID : 2

  33. Format : E-AC-3

  34. Format/Info : Enhanced AC-3

  35. Commercial name : Dolby Digital Plus

  36. Codec ID : ec-3

  37. Duration : 1 h 51 min

  38. Bit rate mode : Constant

  39. Bit rate : 256 kb/s

  40. Channel(s) : 2 channels

  41. Channel layout : L R

  42. Sampling rate : 48.0 kHz

  43. Frame rate : 31.250 FPS (1536 SPF)

  44. Compression mode : Lossy

  45. Stream size : 203 MiB (2%)

  46. Title : 国语DDP2.0

  47. Language : Chinese

  48. Service kind : Complete Main

  49. Default : Yes

  50. Alternate group : 1


  51. Audio #2

  52. ID : 3

  53. Format : AAC LC

  54. Format/Info : Advanced Audio Codec Low Complexity

  55. Codec ID : mp4a-40-2

  56. Duration : 1 h 51 min

  57. Bit rate mode : Constant

  58. Bit rate : 192 kb/s

  59. Channel(s) : 2 channels

  60. Channel layout : L R

  61. Sampling rate : 44.1 kHz

  62. Frame rate : 43.066 FPS (1024 SPF)

  63. Compression mode : Lossy

  64. Stream size : 151 MiB (1%)

  65. Title : 国语AAC2.0

  66. Language : Chinese

  67. Default : No

  68. Alternate group : 1



文件下载


除非特别注明,本文『俑之城[国语音轨].Realm.of.Terracotta.2021.2160p.WEB-DL.H265.DDP2.0 12.58GB』来源于互联网机器人自动抓取,非本站原创。 浮游电影网不对本文拥有版权,如有侵犯,请联系邮箱:fuyouu#yandex.com[#换成@]投诉。我们会在15个工作日内删除。 但烦请转载时请标明出处:“本文转载于『浮游电影网』,原文地址:https://www.fuyouu.com/13643.html

评论吧骚年!

发表你的见解   

昵称*

E-mail*(建议输入,以便收到博主回复的提示邮件)

验证码*

您可以使用eMule或eMule Mod(Windows)、aMule(Win、Linux、Mac)等软件下载eD2k链接。。
eMule收藏集(.emulecollection)文件是您选中的所有链接的列表文件。eMule可以直接下载它们。
按住SHIFT键选择可以选中多个选择框。
可用文件名和大小选择器来选择文件。
文件名选择器帮您根据文件名称或后缀来选择文件。不分大小写。
符号使用:
和:空格( )、+
不包含:-
或:|
转义:一对英文引号("");
匹配开头:^
匹配结尾:$
例如:
选中所有名称中包含有“eMule”或“0.49c”字眼,但不包含有“exe”字眼的:emule|0.49c -exe
选中所有名称的开头是“eMule”,结尾是“0.49c”的:^emule 0.49c$
选中所有名称中带有“eMule 0.49c”的(必须是“eMule 0.49c”,中间没有别的字符,不能是“eMule fake 0.49c”),需要转义:"emule 0.49c"
大小选择器帮您根据文件大小选择文件。