当前位置: 首页 >> 国产电影 >> 双生灵[国语音轨].Twin.Spirit.2015.1080p.HDR.WEB-DL.H265.AAC 1.67GB >> 正文

双生灵[国语音轨].Twin.Spirit.2015.1080p.HDR.WEB-DL.H265.AAC 1.67GB

2021年08月17日 10:44:21     电影发布:来源于网络     电影分类:国产电影     评论(0)    

双生灵[国语音轨].Twin.Spirit.2015.1080p.HDR.WEB DL.H265.AAC 1.67GB 悬疑片 惊悚片 国产电影  第1张

◎译 名 双生灵 / Twin Spirit / ???

◎年 代 2015

◎产 地 中国大陆

◎类 别 悬疑 / 惊悚

◎语 言 汉语普通话

◎上映日期 2015-08-21(中国大陆)

◎IMDb链接 https://www.imdb.com/title/tt6371934/

◎豆瓣评分 3.5/10 (548人评价)

◎豆瓣链接 https://movie.douban.com/subject/26575124/

◎片 长 93分钟

◎导 演 秦榛 Zoe Qin (id:1350801)

◎编 剧 秦榛 Zoe Qin (id:1350801)

常奕然 Yiran Chang (id:1350800)

◎演 员 车艺莲 Ye-ryeon Cha (id:1206699)

常奕然 Yiran Chang (id:1350800)

刘佳佳 Jiajia Liu (id:1319475)

刘冠麟 Guanlin Liu (id:1274659)

尹菲 Fei Yin (id:1350802)

刘冠霖 Guanlin Liu (id:1352739)

◎标 签 惊悚 / 恐怖 / 悬疑 / 中国 / 2015 / 车艺莲 / 喜剧片 / 。。。。

◎简 介

一栋豪华别墅,迎来了美丽的女教师刘玉(车艺莲 饰)。这家的男主人顾问泽(刘冠麟 饰)和妻子是二婚(刘佳佳 饰),他膝下有一个美丽的女儿青柠(常奕然 饰)。但是当年因为某起事件,青柠的身心受到极大刺激,她把自己深锁在房间内,而且绝对不允许拉开窗帘照到外面的阳光。喜欢绘画的青柠请过多位绘画老师,结果没有一个让她满意,而刘玉的画作似乎深得她的欢心。

青柠非常喜欢刘玉,两人一见如故,亲如姐妹。不过这个家中似乎隐藏着可怕的秘密,青柠仿佛总在和另一个看不见的人玩耍聊天,而一连串恐怖事件都指向了刘玉内心的原罪……

  1. ##### MediaInfo ######

  2. General

  3. Unique ID : 26046488038397151458618310381290272359 (0x13985F021BD876C62689EAA6F4063667)

  4. Complete name : 双生灵.Twin.Spirit.2015.1080p.HDR.WEB-DL.H265.AAC-10006@BBQDDQ.COM.mkv

  5. Format : Matroska

  6. Format version : Version 4

  7. File size : 1.66 GiB

  8. Duration : 1 h 30 min

  9. Overall bit rate : 2 634 kb/s

  10. Encoded date : UTC 2021-08-07 13:46:08

  11. Writing application : mkvmerge v49.0.0 ('Sick Of Losing Soulmates') 64-bit

  12. Writing library : libebml v1.4.0 + libmatroska v1.6.1


  13. Video

  14. ID : 1

  15. Format : HEVC

  16. Format/Info : High Efficiency Video Coding

  17. Format profile : Main 10@L4@Main

  18. HDR format : SMPTE ST 2086, HDR10 compatible

  19. Codec ID : V_MPEGH/ISO/HEVC

  20. Duration : 1 h 30 min

  21. Bit rate : 2 507 kb/s

  22. Width : 1 920 pixels

  23. Height : 808 pixels

  24. Display aspect ratio : 2.40:1

  25. Frame rate mode : Constant

  26. Frame rate : 25.000 FPS

  27. Color space : YUV

  28. Chroma subsampling : 4:2:0

  29. Bit depth : 10 bits

  30. Bits/(Pixel*Frame) : 0.065

  31. Stream size : 1.58 GiB (95%)

  32. Default : Yes

  33. Forced : No

  34. Color range : Limited

  35. Color primaries : BT.2020

  36. Transfer characteristics : PQ

  37. Matrix coefficients : BT.2020 non-constant

  38. Mastering display color primaries : R: x=0.708000 y=0.292000, G: x=0.170000 y=0.797000, B: x=0.130000 y=0.046000, White point: x=0.312700 y=0.329000

  39. Mastering display luminance : min: 0.0000 cd/m2, max: 0 cd/m2


  40. Audio

  41. ID : 2

  42. Format : AAC LC

  43. Format/Info : Advanced Audio Codec Low Complexity

  44. Codec ID : A_AAC-2

  45. Duration : 1 h 30 min

  46. Bit rate : 124 kb/s

  47. Channel(s) : 2 channels

  48. Channel layout : L R

  49. Sampling rate : 44.1 kHz

  50. Frame rate : 43.066 FPS (1024 SPF)

  51. Compression mode : Lossy

  52. Stream size : 80.4 MiB (5%)

  53. Language : Chinese

  54. Default : Yes

  55. Forced : No



文件下载


除非特别注明,本文『双生灵[国语音轨].Twin.Spirit.2015.1080p.HDR.WEB-DL.H265.AAC 1.67GB』来源于互联网机器人自动抓取,非本站原创。 浮游电影网不对本文拥有版权,如有侵犯,请联系邮箱:fuyouu#yandex.com[#换成@]投诉。我们会在15个工作日内删除。 但烦请转载时请标明出处:“本文转载于『浮游电影网』,原文地址:https://www.fuyouu.com/13628.html

评论吧骚年!

发表你的见解   

昵称*

E-mail*(建议输入,以便收到博主回复的提示邮件)

验证码*

您可以使用eMule或eMule Mod(Windows)、aMule(Win、Linux、Mac)等软件下载eD2k链接。。
eMule收藏集(.emulecollection)文件是您选中的所有链接的列表文件。eMule可以直接下载它们。
按住SHIFT键选择可以选中多个选择框。
可用文件名和大小选择器来选择文件。
文件名选择器帮您根据文件名称或后缀来选择文件。不分大小写。
符号使用:
和:空格( )、+
不包含:-
或:|
转义:一对英文引号("");
匹配开头:^
匹配结尾:$
例如:
选中所有名称中包含有“eMule”或“0.49c”字眼,但不包含有“exe”字眼的:emule|0.49c -exe
选中所有名称的开头是“eMule”,结尾是“0.49c”的:^emule 0.49c$
选中所有名称中带有“eMule 0.49c”的(必须是“eMule 0.49c”,中间没有别的字符,不能是“eMule fake 0.49c”),需要转义:"emule 0.49c"
大小选择器帮您根据文件大小选择文件。