当前位置: 首页 >> 日韩电影 >> 麦秋[简繁字幕].Early.Summer.1951.1080p.FriDay.WEB-DL.H264.AAC 4.52GB >> 正文

麦秋[简繁字幕].Early.Summer.1951.1080p.FriDay.WEB-DL.H264.AAC 4.52GB

2021年08月17日 10:39:43     电影发布:来源于网络     电影分类:日韩电影     评论(0)    

麦秋[简繁字幕].Early.Summer.1951.1080p.FriDay.WEB DL.H264.AAC 4.52GB 家庭片 剧情片 日韩电影  第1张

◎译 名 麦秋 / Early Summer

◎片 名 麥秋

◎年 代 1951

◎产 地 日本

◎类 别 剧情 / 家庭

◎语 言 日语

◎上映日期 1951-10-03(日本)

◎IMDb链接 https://www.imdb.com/title/tt0043313/

◎豆瓣评分 8.8/10 (9859人评价)

◎豆瓣链接 https://movie.douban.com/subject/1401842/

◎片 长 124分钟

◎导 演 小津安二郎 Yasujir? Ozu (id:1036727)

◎编 剧 野田高梧 K?go Noda (id:1042948)

小津安二郎 Yasujir? Ozu (id:1036727)

◎演 员 原节子 Setsuko Hara (id:1018531)

笠智众 Chish? Ry? (id:1143078)

淡岛千景 Chikage Awashima (id:1033935)

三宅邦子 Kuniko Miyake (id:1051496)

菅井一郎 Ichir? Sugai (id:1025720)

东山千荣子 Chieko Higashiyama (id:1029130)

杉村春子 Haruko Sugimura (id:1016991)

井川邦子 Kuniko Igawa (id:1107162)

二本柳宽 Hiroshi Nihon'yanagi (id:1127093)

佐野周二 Sh?ji Sano (id:1146040)

高桥丰子 Toyo Takahashi (id:1150234)

宫口精二 Seiji Miyaguchi (id:1041790)

高堂国典 Kokuten K?d? (id:1110135)

志贺真津子 Matsuko Shiga (id:1044673)

今村昌平 Shohei Imamura (id:1050213)

◎标 签 日本 / 家庭 / 1951 / 黑白 / 剧情 / 原節子 / 亲情 / 经典

◎简 介

上了岁数的植物学家间宫周吉(菅井一郎 饰)及其家人住在北镰仓一带,长子康一(笠智衆 饰)是东京某医院的医生,女儿纪子(原节子 饰)在东京丸内贸易公司供职,担任经理佐竹宗太郎(佐野周二 饰)的秘书。

年轻貌美、落落大方的纪子已到适婚年龄,周围的好友也都相继成家,她却依旧待字闺中。父母兄长为了纪子的婚事各自用心,佐竹经理亦将出身名门的前辈真锅介绍给她。但是,纪子却独独倾心哥哥的同事矢部谦吉(二本柳寛 饰)——一个丧偶带着三岁女儿且捉襟见肘的男子……

本片荣获1952年蓝丝带最佳女主角(原节子)、最佳摄影、最佳导演和最佳女配角(杉村春子)等四项大奖;1952年电影旬报最佳影片;1952年每日电影最佳女主角和最佳影片。

  1. ##### MediaInfo ######

  2. General

  3. Unique ID : 62117911890125405516460348053100933012 (0x2EBB798343ECEF1F5D05521607CFAF94)

  4. Complete name : Early.Summer.1951.1080p.FriDay.WEB-DL.H264.AAC-10001@BBQDDQ.COM.mkv

  5. Format : Matroska

  6. Format version : Version 4

  7. File size : 4.52 GiB

  8. Duration : 2 h 5 min

  9. Overall bit rate : 5 156 kb/s

  10. Encoded date : UTC 2021-08-15 03:38:20

  11. Writing application : mkvmerge v56.1.0 ('My Friend') 64-bit

  12. Writing library : libebml v1.4.2 + libmatroska v1.6.4


  13. Video

  14. ID : 1

  15. Format : AVC

  16. Format/Info : Advanced Video Codec

  17. Format profile : High@L4

  18. Format settings : 3 Ref Frames

  19. Format settings, CABAC : No

  20. Format settings, Reference frames : 3 frames

  21. Format settings, GOP : M=1, N=30

  22. Codec ID : V_MPEG4/ISO/AVC

  23. Duration : 2 h 5 min

  24. Bit rate : 5 029 kb/s

  25. Width : 1 920 pixels

  26. Height : 1 080 pixels

  27. Display aspect ratio : 16:9

  28. Frame rate mode : Constant

  29. Frame rate : 30.000 FPS

  30. Color space : YUV

  31. Chroma subsampling : 4:2:0

  32. Bit depth : 8 bits

  33. Scan type : Progressive

  34. Bits/(Pixel*Frame) : 0.081

  35. Stream size : 4.40 GiB (97%)

  36. Language : English

  37. Default : Yes

  38. Forced : No


  39. Audio

  40. ID : 2

  41. Format : AAC LC

  42. Format/Info : Advanced Audio Codec Low Complexity

  43. Codec ID : A_AAC-2

  44. Duration : 2 h 5 min

  45. Bit rate : 128 kb/s

  46. Channel(s) : 2 channels

  47. Channel layout : L R

  48. Sampling rate : 44.1 kHz

  49. Frame rate : 43.066 FPS (1024 SPF)

  50. Compression mode : Lossy

  51. Stream size : 115 MiB (2%)

  52. Language : Japanese

  53. Default : Yes

  54. Forced : No


  55. Text #1

  56. ID : 3

  57. Format : UTF-8

  58. Codec ID : S_TEXT/UTF8

  59. Codec ID/Info : UTF-8 Plain Text

  60. Duration : 2 h 4 min

  61. Bit rate : 33 b/s

  62. Count of elements : 1536

  63. Stream size : 30.2 KiB (0%)

  64. Title : Chinese Simplified

  65. Language : Chinese

  66. Default : Yes

  67. Forced : No


  68. Text #2

  69. ID : 4

  70. Format : UTF-8

  71. Codec ID : S_TEXT/UTF8

  72. Codec ID/Info : UTF-8 Plain Text

  73. Duration : 2 h 4 min

  74. Bit rate : 33 b/s

  75. Count of elements : 1536

  76. Stream size : 30.2 KiB (0%)

  77. Title : Chinese Traditional

  78. Language : Chinese

  79. Default : No

  80. Forced : No




文件下载


除非特别注明,本文『麦秋[简繁字幕].Early.Summer.1951.1080p.FriDay.WEB-DL.H264.AAC 4.52GB』来源于互联网机器人自动抓取,非本站原创。 浮游电影网不对本文拥有版权,如有侵犯,请联系邮箱:fuyouu#yandex.com[#换成@]投诉。我们会在15个工作日内删除。 但烦请转载时请标明出处:“本文转载于『浮游电影网』,原文地址:https://www.fuyouu.com/13625.html

评论吧骚年!

发表你的见解   

昵称*

E-mail*(建议输入,以便收到博主回复的提示邮件)

验证码*

您可以使用eMule或eMule Mod(Windows)、aMule(Win、Linux、Mac)等软件下载eD2k链接。。
eMule收藏集(.emulecollection)文件是您选中的所有链接的列表文件。eMule可以直接下载它们。
按住SHIFT键选择可以选中多个选择框。
可用文件名和大小选择器来选择文件。
文件名选择器帮您根据文件名称或后缀来选择文件。不分大小写。
符号使用:
和:空格( )、+
不包含:-
或:|
转义:一对英文引号("");
匹配开头:^
匹配结尾:$
例如:
选中所有名称中包含有“eMule”或“0.49c”字眼,但不包含有“exe”字眼的:emule|0.49c -exe
选中所有名称的开头是“eMule”,结尾是“0.49c”的:^emule 0.49c$
选中所有名称中带有“eMule 0.49c”的(必须是“eMule 0.49c”,中间没有别的字符,不能是“eMule fake 0.49c”),需要转义:"emule 0.49c"
大小选择器帮您根据文件大小选择文件。