当前位置: 首页 >> 国产电影 >> 燃野少年的天空[国语音轨].The.Day.We.Lit.Up.The.Sky.2021.WEB-DL.4K.H265.AAC.5.1 4.71GB >> 正文

燃野少年的天空[国语音轨].The.Day.We.Lit.Up.The.Sky.2021.WEB-DL.4K.H265.AAC.5.1 4.71GB

2021年08月17日 10:38:29     电影发布:来源于网络     电影分类:国产电影     评论(0)    

燃野少年的天空[国语音轨].The.Day.We.Lit.Up.The.Sky.2021.WEB DL.4K.H265.AAC.5.1 4.71GB 歌舞 喜剧片 国产电影  第1张

◎译 名 燃野少年的天空 / The Day We Lit Up The Sky

◎年 代 2021

◎产 地 中国大陆

◎类 别 喜剧 / 歌舞

◎语 言 汉语普通话

◎上映日期 2021-07-17(中国大陆)

◎IMDb链接 https://www.imdb.com/title/tt14866426/

◎豆瓣评分 4.5/10 (39642人评价)

◎豆瓣链接 https://movie.douban.com/subject/35256235/

◎片 长 108分钟

◎导 演 张一白 Yibai Zhang (id:1275554)

韩琰 Yan Han (id:1365296)

◎编 剧 里则林 Zelin Li (id:1410023)

◎演 员 彭昱畅 Yuchang Peng (id:1354775)

许恩怡 Enyi Xu (id:1458164)

张宥浩 Youhao Zhang (id:1357957)

尹正 Zheng Yin (id:1332934)

孙芮 Rui Sun (id:1354601)

斯外戈 Zhi Liu (id:1408891)

廖月颖 Yueying Liao (id:1458165)

胡宇轩 Yuxuan Hu (id:1395348)

李若彤 Carman Lee (id:1023476)

乔杉 Shan Qiao (id:1316368)

刘敏涛 Mintao Liu (id:1318610)

黄觉 Jue Huang (id:1275273)

张译 Yi Zhang (id:1274761)

刘仪伟 Yiwei Liu (id:1315726)

梁静 Jing Liang (id:1274641)

景岗山 Gangshan Jing (id:1313351)

霍思燕 Siyan Huo (id:1000145)

蔡一智 Calvin Choi (id:1015990)

唐诗逸 Shiyi Tang (id:1377887)

谢楠 Nan Xie (id:1313761)

郑秀文 Sammi Cheng (id:1023284)

梁靖康 Jingkang Liang (id:1370070)

李庚希 Gengxi Li (id:1376310)

马伯骞 Victor Ma (id:1378212)

刘艺晨 Yichen Liu (id:1458230)

米译民 YiMin (id:1460045)

周大熊 ZhouDaXiong (id:1460047)

张亚东 Yadong Zhang (id:1313093)

张哲瀚 Zhehan Zhang (id:1323399)

希林娜依·高 Curley G (id:1435600)

尤长靖 Azora Chin (id:1392196)

周深 Shen Zhou (id:1366895)

余静萍 Ching Ping Yu (id:1363692)

牛牛 Niu Niu (id:1375662)

翟韬 Tao Zhai (id:1378371)

吴里璐 Dora Ng (id:1289270)

蔡婧 Cheldon Cai (id:1451004)

◎标 签 青春 / 彭昱畅 / 歌舞 / 校园 / 喜剧 / 2021 / 中国大陆 / 张一白

◎简 介

只身来到海南复读的老狗(彭昱畅 饰),结识了一群臭味相投的“咸鱼少年”,遇见了一群参差不齐的“杂草少女”,缺乏自知之明的他们,要一起参加舞动奇迹大赛。他们迈过偏见与隔阂、战胜自卑和怯懦,放飞青春、肆意起舞,燃过烈日颱风,野遍大街小巷!这个夏天,一起跳舞吧!

  1. ##### MediaInfo ######

  2. General

  3. Unique ID : 178063383895069786244705667657047239624 (0x85F5C2A34C84BFADACF838C71B586BC8)

  4. Complete name : The.Day.We.Lit.Up.The.Sky.2021.WEB-DL.4K.H265.AAC.5.1-10015@BBQDDQ.COM.mkv

  5. Format : Matroska

  6. Format version : Version 4

  7. File size : 4.71 GiB

  8. Duration : 1 h 47 min

  9. Overall bit rate : 6 250 kb/s

  10. Encoded date : UTC 2021-08-15 02:15:51

  11. Writing application : mkvmerge v58.0.0 ('Supper's Ready') 64-bit

  12. Writing library : libebml v1.4.2 + libmatroska v1.6.4


  13. Video

  14. ID : 1

  15. Format : HEVC

  16. Format/Info : High Efficiency Video Coding

  17. Format profile : Main@L5@Main

  18. Codec ID : V_MPEGH/ISO/HEVC

  19. Duration : 1 h 47 min

  20. Bit rate : 6 117 kb/s

  21. Width : 3 840 pixels

  22. Height : 1 626 pixels

  23. Display aspect ratio : 2.35:1

  24. Frame rate mode : Constant

  25. Frame rate : 24.000 FPS

  26. Color space : YUV

  27. Chroma subsampling : 4:2:0

  28. Bit depth : 8 bits

  29. Bits/(Pixel*Frame) : 0.041

  30. Stream size : 4.61 GiB (98%)

  31. Writing library : HW265_Code

  32. Default : Yes

  33. Forced : No

  34. Color range : Limited

  35. Color primaries : BT.709

  36. Matrix coefficients : BT.709


  37. Audio

  38. ID : 2

  39. Format : AAC LC SBR

  40. Format/Info : Advanced Audio Codec Low Complexity with Spectral Band Replication

  41. Commercial name : HE-AAC

  42. Format settings : NBC

  43. Codec ID : A_AAC-5

  44. Duration : 1 h 47 min

  45. Bit rate : 132 kb/s

  46. Channel(s) : 6 channels

  47. Channel layout : C L R Ls Rs LFE

  48. Sampling rate : 48.0 kHz

  49. Frame rate : 23.438 FPS (2048 SPF)

  50. Compression mode : Lossy

  51. Stream size : 101 MiB (2%)

  52. Language : Chinese

  53. Default : Yes

  54. Forced : No



文件下载


除非特别注明,本文『燃野少年的天空[国语音轨].The.Day.We.Lit.Up.The.Sky.2021.WEB-DL.4K.H265.AAC.5.1 4.71GB』来源于互联网机器人自动抓取,非本站原创。 浮游电影网不对本文拥有版权,如有侵犯,请联系邮箱:fuyouu#yandex.com[#换成@]投诉。我们会在15个工作日内删除。 但烦请转载时请标明出处:“本文转载于『浮游电影网』,原文地址:https://www.fuyouu.com/13624.html

评论吧骚年!

发表你的见解   

昵称*

E-mail*(建议输入,以便收到博主回复的提示邮件)

验证码*

您可以使用eMule或eMule Mod(Windows)、aMule(Win、Linux、Mac)等软件下载eD2k链接。。
eMule收藏集(.emulecollection)文件是您选中的所有链接的列表文件。eMule可以直接下载它们。
按住SHIFT键选择可以选中多个选择框。
可用文件名和大小选择器来选择文件。
文件名选择器帮您根据文件名称或后缀来选择文件。不分大小写。
符号使用:
和:空格( )、+
不包含:-
或:|
转义:一对英文引号("");
匹配开头:^
匹配结尾:$
例如:
选中所有名称中包含有“eMule”或“0.49c”字眼,但不包含有“exe”字眼的:emule|0.49c -exe
选中所有名称的开头是“eMule”,结尾是“0.49c”的:^emule 0.49c$
选中所有名称中带有“eMule 0.49c”的(必须是“eMule 0.49c”,中间没有别的字符,不能是“eMule fake 0.49c”),需要转义:"emule 0.49c"
大小选择器帮您根据文件大小选择文件。