当前位置: 首页 >> 国产电影 >> 江湖论剑实录[国语音轨].A.Stupid.Journey.2014.1080p.HDR.WEB-DL.H265.AAC 1.69GB >> 正文

江湖论剑实录[国语音轨].A.Stupid.Journey.2014.1080p.HDR.WEB-DL.H265.AAC 1.69GB

2021年08月17日 10:24:43     电影发布:来源于网络     电影分类:国产电影     评论(0)    

江湖论剑实录[国语音轨].A.Stupid.Journey.2014.1080p.HDR.WEB DL.H265.AAC 1.69GB 古装片 喜剧片 国产电影  第1张

◎译 名 江湖论剑实录 / 江湖论贱实录 / 江湖论贱 / A?Stupid?Journey / Gone With Fart

◎年 代 2014

◎产 地 中国大陆

◎类 别 喜剧 / 古装

◎语 言 汉语普通话

◎上映日期 2014-08-15(中国大陆)

◎IMDb链接 https://www.imdb.com/title/tt7123244/

◎豆瓣评分 5.9/10 (13257人评价)

◎豆瓣链接 https://movie.douban.com/subject/24758396/

◎片 长 96分钟

◎导 演 蒋卓原 Zhuoyuan Jiang (id:1340958)

◎编 剧 蒋卓原 Zhuoyuan Jiang (id:1340958)

顾斐斐 Feifei Gu (id:1341602)

◎演 员 郑恺 Kai Zheng (id:1275564)

孙坚 Jian Sun (id:1313285)

潘之琳 Zhilin Pan (id:1275632)

余思潞 Josephine Yu (id:1318167)

午马 Wu Ma (id:1054282)

罗家英 Kar-Ying Law (id:1108968)

李健仁 Kin-Yan Lee (id:1315575)

王迅 Xun Wang (id:1317139)

何沄伟 Yunwei He (id:1313982)

尹铸胜 Zhusheng Yin (id:1313561)

杨皓宇 Haoyu Yang (id:1318482)

高宝宝 Baobao Gao (id:1314440)

夏嘉伟 Jiawei Xia (id:1315130)

蔡蝶 Die Cai (id:1320466)

陈铮 Zheng Chen (id:1274712)

荆浩 Hao Jing (id:1336722)

蒋卓原 Zhuoyuan Jiang (id:1340958)

韩艺博 Yibo Han (id:1340965)

王一飞 Yifei Wang (id:1399387)

张剑 Amber Zhang (id:1408609)

◎标 签 喜剧 / 搞笑 / 郑恺 / 中国 / 2014 / 大陆 / 古装 / 电影

◎简 介

北宋的普通青年司徒耀祖(郑恺 饰)在名门正派习武学成,进入社会后才发现现实的残酷,他放弃了毫无前途的捕快工作,奔赴首都汴梁寻找人生价值。在汴梁,司徒耀祖结识了无法走红的歌姬王二丫(潘之琳 饰),并与喜好丹青的官二代张鼎鼎(孙坚 饰)不打不相识。因张鼎鼎的父亲不愿儿子成为 危险系数过高的驸马,司徒耀祖偶然成为张父的义子,顶替张鼎鼎参与驸马的争夺,并与张鼎鼎的好友王翠(余思潞 饰)一较高下,胜出的耀祖有了做驸马的资格,但公主却已被番邦掳走,为了成为驸马,司徒耀祖、张鼎鼎、王二丫和王翠四人踏上了惊心且搞笑的搭救公主的旅途,同时他们也经历了各自的成长……

  1. ##### MediaInfo ######

  2. General

  3. Unique ID : 95025899496045995849455328282828031063 (0x477D529188C5C54B2351DCD721AB4457)

  4. Complete name : 江湖论剑实录.A.Stupid.Journey.2014.1080p.HDR.WEB-DL.H265.AAC-10006@BBQDDQ.COM.mkv

  5. Format : Matroska

  6. Format version : Version 4

  7. File size : 1.69 GiB

  8. Duration : 1 h 31 min

  9. Overall bit rate : 2 630 kb/s

  10. Encoded date : UTC 2021-08-07 13:46:46

  11. Writing application : mkvmerge v49.0.0 ('Sick Of Losing Soulmates') 64-bit

  12. Writing library : libebml v1.4.0 + libmatroska v1.6.1


  13. Video

  14. ID : 1

  15. Format : HEVC

  16. Format/Info : High Efficiency Video Coding

  17. Format profile : Main 10@L4@Main

  18. HDR format : SMPTE ST 2086, HDR10 compatible

  19. Codec ID : V_MPEGH/ISO/HEVC

  20. Duration : 1 h 31 min

  21. Bit rate : 2 503 kb/s

  22. Width : 1 920 pixels

  23. Height : 816 pixels

  24. Display aspect ratio : 2.35:1

  25. Frame rate mode : Constant

  26. Frame rate : 25.000 FPS

  27. Color space : YUV

  28. Chroma subsampling : 4:2:0

  29. Bit depth : 10 bits

  30. Bits/(Pixel*Frame) : 0.064

  31. Stream size : 1.61 GiB (95%)

  32. Default : Yes

  33. Forced : No

  34. Color range : Limited

  35. Color primaries : BT.2020

  36. Transfer characteristics : PQ

  37. Matrix coefficients : BT.2020 non-constant

  38. Mastering display color primaries : R: x=0.708000 y=0.292000, G: x=0.170000 y=0.797000, B: x=0.130000 y=0.046000, White point: x=0.312700 y=0.329000

  39. Mastering display luminance : min: 0.0000 cd/m2, max: 0 cd/m2


  40. Audio

  41. ID : 2

  42. Format : AAC LC

  43. Format/Info : Advanced Audio Codec Low Complexity

  44. Codec ID : A_AAC-2

  45. Duration : 1 h 31 min

  46. Bit rate : 124 kb/s

  47. Channel(s) : 2 channels

  48. Channel layout : L R

  49. Sampling rate : 44.1 kHz

  50. Frame rate : 43.066 FPS (1024 SPF)

  51. Compression mode : Lossy

  52. Stream size : 81.7 MiB (5%)

  53. Language : Chinese

  54. Default : Yes

  55. Forced : No



文件下载


除非特别注明,本文『江湖论剑实录[国语音轨].A.Stupid.Journey.2014.1080p.HDR.WEB-DL.H265.AAC 1.69GB』来源于互联网机器人自动抓取,非本站原创。 浮游电影网不对本文拥有版权,如有侵犯,请联系邮箱:fuyouu#yandex.com[#换成@]投诉。我们会在15个工作日内删除。 但烦请转载时请标明出处:“本文转载于『浮游电影网』,原文地址:https://www.fuyouu.com/13619.html

评论吧骚年!

发表你的见解   

昵称*

E-mail*(建议输入,以便收到博主回复的提示邮件)

验证码*

您可以使用eMule或eMule Mod(Windows)、aMule(Win、Linux、Mac)等软件下载eD2k链接。。
eMule收藏集(.emulecollection)文件是您选中的所有链接的列表文件。eMule可以直接下载它们。
按住SHIFT键选择可以选中多个选择框。
可用文件名和大小选择器来选择文件。
文件名选择器帮您根据文件名称或后缀来选择文件。不分大小写。
符号使用:
和:空格( )、+
不包含:-
或:|
转义:一对英文引号("");
匹配开头:^
匹配结尾:$
例如:
选中所有名称中包含有“eMule”或“0.49c”字眼,但不包含有“exe”字眼的:emule|0.49c -exe
选中所有名称的开头是“eMule”,结尾是“0.49c”的:^emule 0.49c$
选中所有名称中带有“eMule 0.49c”的(必须是“eMule 0.49c”,中间没有别的字符,不能是“eMule fake 0.49c”),需要转义:"emule 0.49c"
大小选择器帮您根据文件大小选择文件。