当前位置: 首页 >> 日韩电影 >> 三角窗外是黑夜[简繁字幕].The.Night.Beyond.the.Tricornered.Window.2021.1080p.FriDay.WEB-DL.H264.AAC 2.66GB >> 正文

三角窗外是黑夜[简繁字幕].The.Night.Beyond.the.Tricornered.Window.2021.1080p.FriDay.WEB-DL.H264.AAC 2.66GB

2021年08月17日 09:51:52     电影发布:来源于网络     电影分类:日韩电影     评论(0)    

三角窗外是黑夜[简繁字幕].The.Night.Beyond.the.Tricornered.Window.2021.1080p.FriDay.WEB DL.H264.AAC 2.66GB 同性 悬疑片 剧情片 日韩电影  第1张

◎译 名 三角窗外是黑夜 / The night beyond the tricornered window

◎片 名 さんかく窓の外側は夜

◎年 代 2021

◎产 地 日本

◎类 别 剧情 / 悬疑 / 同性

◎语 言 日语

◎上映日期 2021-01-22(日本)

◎IMDb链接 https://www.imdb.com/title/tt12681644/

◎豆瓣评分 4.9/10 (1157人评价)

◎豆瓣链接 https://movie.douban.com/subject/34945582/

◎导 演 森垣侑大 Yukihiro Morigaki (id:1392347)

◎编 剧 相泽友子 Tomoko Aizawa (id:1325112)

◎演 员 冈田将生 Masaki Okada (id:1274453)

志尊淳 Jun Shison (id:1322296)

平手友梨奈 Yurina Hirate (id:1357504)

泷藤贤一 Kenichi Takito (id:1323403)

筒井道隆 Michitaka Tsutsui (id:1002489)

槙田雄司 Makita Sports (id:1329523)

新纳慎也 Shinya NIRO (id:1386430)

樱井由纪 Yuki Sakurai (id:1352403)

和久井映见 Emi Wakui (id:1039270)

北川景子 Keiko Kitagawa (id:1023064)

諫早幸作 Kousaku Isahaya (id:1451701)

内田慈 Chika Uchida (id:1340040)

池田良 Ry? Ikeda (id:1355321)

足立智充 Tomomitsu Adachi (id:1324028)

松泽匠 Takumi Matsuzawa (id:1344090)

水泽绅吾 Shingo Mizusawa (id:1369971)

◎标 签 日本 / 志尊淳 / 漫画改编 / 日本电影 / 冈田将生 / 2020 / 日影 / 电影

◎简 介

山下朋子人气漫画《三角窗外是黑夜》确定将真人电影化,由#冈田将生# #志尊淳# 联袂主演,计划于今年晚些时候上映。《三角窗外是黑夜》讲述以除灵为工作的冷川与助手三角之间的故事。该漫画已推出单行本漫画7卷,发行量超过百万册。

  1. ##### MediaInfo ######

  2. General

  3. Unique ID : 178283312661400734202666747795137145114 (0x86201DF6970869F99422ADE74794A91A)

  4. Complete name : The.Night.Beyond.the.Tricornered.Window.2021.1080p.FriDay.WEB-DL.H264.AAC-10001@BBQDDQ.COM.mkv

  5. Format : Matroska

  6. Format version : Version 4

  7. File size : 2.66 GiB

  8. Duration : 1 h 42 min

  9. Overall bit rate : 3 694 kb/s

  10. Encoded date : UTC 2021-08-14 02:56:23

  11. Writing application : mkvmerge v56.1.0 ('My Friend') 64-bit

  12. Writing library : libebml v1.4.2 + libmatroska v1.6.4


  13. Video

  14. ID : 1

  15. Format : AVC

  16. Format/Info : Advanced Video Codec

  17. Format profile : High@L4.1

  18. Format settings : CABAC / 1 Ref Frames

  19. Format settings, CABAC : Yes

  20. Format settings, Reference frames : 1 frame

  21. Format settings, GOP : M=1, N=60

  22. Codec ID : V_MPEG4/ISO/AVC

  23. Duration : 1 h 42 min

  24. Bit rate mode : Constant

  25. Bit rate : 3 566 kb/s

  26. Nominal bit rate : 4 000 kb/s

  27. Width : 1 920 pixels

  28. Height : 1 080 pixels

  29. Display aspect ratio : 16:9

  30. Frame rate mode : Constant

  31. Frame rate : 29.970 (30000/1001/53354) FPS

  32. Color space : YUV

  33. Chroma subsampling : 4:2:0

  34. Bit depth : 8 bits

  35. Scan type : Progressive

  36. Bits/(Pixel*Frame) : 0.057

  37. Stream size : 2.56 GiB (97%)

  38. Language : English

  39. Default : Yes

  40. Forced : No


  41. Audio

  42. ID : 2

  43. Format : AAC LC

  44. Format/Info : Advanced Audio Codec Low Complexity

  45. Codec ID : A_AAC-2

  46. Duration : 1 h 42 min

  47. Bit rate : 125 kb/s

  48. Channel(s) : 2 channels

  49. Channel layout : L R

  50. Sampling rate : 48.0 kHz

  51. Frame rate : 46.875 FPS (1024 SPF)

  52. Compression mode : Lossy

  53. Stream size : 92.3 MiB (3%)

  54. Language : Japanese

  55. Default : Yes

  56. Forced : No


  57. Text #1

  58. ID : 3

  59. Format : UTF-8

  60. Codec ID : S_TEXT/UTF8

  61. Codec ID/Info : UTF-8 Plain Text

  62. Duration : 1 h 41 min

  63. Bit rate : 25 b/s

  64. Count of elements : 795

  65. Stream size : 19.3 KiB (0%)

  66. Title : Chinese Simplified

  67. Language : Chinese

  68. Default : Yes

  69. Forced : No


  70. Text #2

  71. ID : 4

  72. Format : UTF-8

  73. Codec ID : S_TEXT/UTF8

  74. Codec ID/Info : UTF-8 Plain Text

  75. Duration : 1 h 41 min

  76. Bit rate : 25 b/s

  77. Count of elements : 795

  78. Stream size : 19.3 KiB (0%)

  79. Title : Chinese Traditional

  80. Language : Chinese

  81. Default : No

  82. Forced : No



文件下载


除非特别注明,本文『三角窗外是黑夜[简繁字幕].The.Night.Beyond.the.Tricornered.Window.2021.1080p.FriDay.WEB-DL.H264.AAC 2.66GB』来源于互联网机器人自动抓取,非本站原创。 浮游电影网不对本文拥有版权,如有侵犯,请联系邮箱:fuyouu#yandex.com[#换成@]投诉。我们会在15个工作日内删除。 但烦请转载时请标明出处:“本文转载于『浮游电影网』,原文地址:https://www.fuyouu.com/13616.html

评论吧骚年!

发表你的见解   

昵称*

E-mail*(建议输入,以便收到博主回复的提示邮件)

验证码*

您可以使用eMule或eMule Mod(Windows)、aMule(Win、Linux、Mac)等软件下载eD2k链接。。
eMule收藏集(.emulecollection)文件是您选中的所有链接的列表文件。eMule可以直接下载它们。
按住SHIFT键选择可以选中多个选择框。
可用文件名和大小选择器来选择文件。
文件名选择器帮您根据文件名称或后缀来选择文件。不分大小写。
符号使用:
和:空格( )、+
不包含:-
或:|
转义:一对英文引号("");
匹配开头:^
匹配结尾:$
例如:
选中所有名称中包含有“eMule”或“0.49c”字眼,但不包含有“exe”字眼的:emule|0.49c -exe
选中所有名称的开头是“eMule”,结尾是“0.49c”的:^emule 0.49c$
选中所有名称中带有“eMule 0.49c”的(必须是“eMule 0.49c”,中间没有别的字符,不能是“eMule fake 0.49c”),需要转义:"emule 0.49c"
大小选择器帮您根据文件大小选择文件。