当前位置: 首页 >> 国产电影 >> 密道追踪之阴兵虎符[国语音轨].Tomb.Robber.2014.1080p.HDR.WEB-DL.H265.AAC 1.15GB >> 正文

密道追踪之阴兵虎符[国语音轨].Tomb.Robber.2014.1080p.HDR.WEB-DL.H265.AAC 1.15GB

2021年08月17日 09:49:23     电影发布:来源于网络     电影分类:国产电影     评论(0)    

密道追踪之阴兵虎符[国语音轨].Tomb.Robber.2014.1080p.HDR.WEB DL.H265.AAC 1.15GB 悬疑片 冒险片 惊悚片 动作片 国产电影  第1张

◎译 名 密道追踪之阴兵虎符 / 密道追踪 / Tomb Robber

◎年 代 2014

◎产 地 中国大陆

◎类 别 动作 / 悬疑 / 惊悚 / 冒险

◎语 言 汉语普通话

◎上映日期 2014-12-05(中国大陆)

◎IMDb链接 https://www.imdb.com/title/tt4412098/

◎豆瓣评分 3.5/10 (1666人评价)

◎豆瓣链接 https://movie.douban.com/subject/25852270/

◎片 长 95分钟

◎导 演 俞岛 Dao Yu (id:1324000)

◎编 剧 俞岛 Dao Yu (id:1324000)

俞胜利 Shengli Yu (id:1327482)

蛇从革 Congge She (id:1444599)

◎演 员 唐文龙 Michael Tong (id:1043564)

母其弥雅 Miya Muqi (id:1343228)

李炳渊 Bingyuan Li (id:1343152)

李涛 Tao Li (id:1343229)

郭达 Da Guo (id:1274249)

张山 Shan Zhang (id:1313545)

王胜利 Shengli Wang (id:1396534)

郭常辉 Changhui Guo (id:1326226)

◎标 签 盗墓 / 动作 / 国产电影 / 中国 / 悬疑 / 2014 / 母其弥雅 / 中国电影

◎简 介

燕山脚下某个古镇,老旧的厂区内意外发现一座年代久远的古墓,该消息以极快的速度传播各地,不仅引起考古界的广泛关注,更惹来盗墓团伙的注意。由于地处偏远,在警力和专业人员尚未久违的情况下,当地警察局的刘所长(郭达 饰)命令曾经得过武术冠军的保安头头大拿(李炳渊 饰)肩负起保卫古墓的重任。在此期间,神偷(唐文龙 饰)和嫣儿(母其弥雅 饰)这对擅玩高科技的盗贼鸳鸯嗅着气味来到古镇,另一方面以传统风水勘察墓穴的龙哥也展开行动。大拿周旋在两伙盗贼中间,还要时不时提防内鬼老沙的搅局破坏。

平静的小镇波澜骤起,究竟谁才能一窥古墓的秘密……

  1. ##### MediaInfo ######

  2. General

  3. Unique ID : 206770092149445095269819961904016093176 (0x9B8E78A10CDFF9003FA0BDDD48AF6FF8)

  4. Complete name : 密道追踪之阴兵虎符.Tomb.Robber.2014.1080p.HDR.WEB-DL.H265.AAC-10006@BBQDDQ.COM.mkv

  5. Format : Matroska

  6. Format version : Version 4

  7. File size : 1.15 GiB

  8. Duration : 1 h 35 min

  9. Overall bit rate : 1 726 kb/s

  10. Encoded date : UTC 2021-08-07 13:45:15

  11. Writing application : mkvmerge v49.0.0 ('Sick Of Losing Soulmates') 64-bit

  12. Writing library : libebml v1.4.0 + libmatroska v1.6.1


  13. Video

  14. ID : 1

  15. Format : HEVC

  16. Format/Info : High Efficiency Video Coding

  17. Format profile : Main 10@L4@Main

  18. HDR format : SMPTE ST 2086, HDR10 compatible

  19. Codec ID : V_MPEGH/ISO/HEVC

  20. Duration : 1 h 35 min

  21. Bit rate : 1 600 kb/s

  22. Width : 1 920 pixels

  23. Height : 880 pixels

  24. Display aspect ratio : 2.2:1

  25. Frame rate mode : Constant

  26. Frame rate : 25.000 FPS

  27. Color space : YUV

  28. Chroma subsampling : 4:2:0

  29. Bit depth : 10 bits

  30. Bits/(Pixel*Frame) : 0.038

  31. Stream size : 1.07 GiB (93%)

  32. Default : Yes

  33. Forced : No

  34. Color range : Limited

  35. Color primaries : BT.2020

  36. Transfer characteristics : PQ

  37. Matrix coefficients : BT.2020 non-constant

  38. Mastering display color primaries : Display P3

  39. Mastering display luminance : min: 0.1249 cd/m2, max: 0 cd/m2

  40. Maximum Content Light Level : 592 cd/m2

  41. Maximum Frame-Average Light Level : 191 cd/m2


  42. Audio

  43. ID : 2

  44. Format : AAC LC

  45. Format/Info : Advanced Audio Codec Low Complexity

  46. Codec ID : A_AAC-2

  47. Duration : 1 h 35 min

  48. Bit rate : 124 kb/s

  49. Channel(s) : 2 channels

  50. Channel layout : L R

  51. Sampling rate : 44.1 kHz

  52. Frame rate : 43.066 FPS (1024 SPF)

  53. Compression mode : Lossy

  54. Stream size : 84.8 MiB (7%)

  55. Language : Chinese

  56. Default : Yes

  57. Forced : No



文件下载


除非特别注明,本文『密道追踪之阴兵虎符[国语音轨].Tomb.Robber.2014.1080p.HDR.WEB-DL.H265.AAC 1.15GB』来源于互联网机器人自动抓取,非本站原创。 浮游电影网不对本文拥有版权,如有侵犯,请联系邮箱:fuyouu#yandex.com[#换成@]投诉。我们会在15个工作日内删除。 但烦请转载时请标明出处:“本文转载于『浮游电影网』,原文地址:https://www.fuyouu.com/13614.html

评论吧骚年!

发表你的见解   

昵称*

E-mail*(建议输入,以便收到博主回复的提示邮件)

验证码*

您可以使用eMule或eMule Mod(Windows)、aMule(Win、Linux、Mac)等软件下载eD2k链接。。
eMule收藏集(.emulecollection)文件是您选中的所有链接的列表文件。eMule可以直接下载它们。
按住SHIFT键选择可以选中多个选择框。
可用文件名和大小选择器来选择文件。
文件名选择器帮您根据文件名称或后缀来选择文件。不分大小写。
符号使用:
和:空格( )、+
不包含:-
或:|
转义:一对英文引号("");
匹配开头:^
匹配结尾:$
例如:
选中所有名称中包含有“eMule”或“0.49c”字眼,但不包含有“exe”字眼的:emule|0.49c -exe
选中所有名称的开头是“eMule”,结尾是“0.49c”的:^emule 0.49c$
选中所有名称中带有“eMule 0.49c”的(必须是“eMule 0.49c”,中间没有别的字符,不能是“eMule fake 0.49c”),需要转义:"emule 0.49c"
大小选择器帮您根据文件大小选择文件。