当前位置: 首页 >> 欧美电影 >> 西北偏北[简繁字幕].North.by.Northwest.1959.1080p.FriDay.WEB-DL.H264.AAC 3.85GB >> 正文

西北偏北[简繁字幕].North.by.Northwest.1959.1080p.FriDay.WEB-DL.H264.AAC 3.85GB

2021年08月17日 09:46:34     电影发布:来源于网络     电影分类:欧美电影     评论(0)    

西北偏北[简繁字幕].North.by.Northwest.1959.1080p.FriDay.WEB DL.H264.AAC 3.85GB 悬疑片 冒险片 惊悚片 欧美电影  第1张

◎译 名 西北偏北 / 夺魄惊魂(港) / 北西北(台) / 谍影疑云 / 北偏北

◎片 名 North by Northwest

◎年 代 1959

◎产 地 美国

◎类 别 悬疑 / 惊悚 / 冒险

◎语 言 英语 / 法语

◎上映日期 1959-07-17(美国)

◎IMDb链接 https://www.imdb.com/title/tt0053125/

◎豆瓣评分 8.3/10 (84430人评价)

◎豆瓣链接 https://movie.douban.com/subject/1295872/

◎片 长 136分钟

◎导 演 阿尔弗雷德·希区柯克 Alfred Hitchcock (id:1025185)

◎编 剧 恩斯特·莱赫曼 Ernest Lehman (id:1037077)

◎演 员 加里·格兰特 Cary Grant (id:1053563)

爱娃·玛丽·森特 Eva Marie Saint (id:1010652)

詹姆斯·梅森 James Mason (id:1048155)

洁茜·罗伊丝·兰迪斯 Jessie Royce Landis (id:1036689)

里奥.G.卡罗尔 Leo G. Carroll (id:1055079)

约瑟芬·哈钦森 Josephine Hutchinson (id:1111419)

菲利普·奥伯 Philip Ober (id:1131262)

马丁·兰道 Martin Landau (id:1019057)

亚当·威廉姆斯 Adam Williams (id:1163832)

爱德华·普拉特 Edward Platt (id:1007072)

罗伯特·艾伦斯坦 Robert Ellenstein (id:1081749)

莱斯·崔梅恩 Les Tremayne (id:1002877)

菲利普·柯立芝 Philip Coolidge (id:1076654)

帕特里克·麦克维 Patrick McVey (id:1117447)

爱德华·宾斯 Edward Binns (id:1066678)

肯·林奇 Ken Lynch (id:1120709)

马尔科姆·阿特伯里 Malcolm Atterbury (id:1058930)

多琳郎 Doreen Lang (id:1108315)

毛拉·麦吉维尼 Maura McGiveney (id:1116689)

莎莉·弗雷泽 Sally Fraser (id:1086488)

伯纳德·赫尔曼 Bernard Herrmann (id:1012539)

乔治·托马西尼 George Tomasini (id:1001683)

史丹利·史密斯 Stanley Smith (id:1297943)

马修·尤里奇 Matthew Yuricich (id:1301579)

◎标 签 希区柯克 / 悬疑 / 美国 / 经典 / 1959 / AlfredHitchcock / 美国电影 / 犯罪

◎简 介

罗杰(加里·格兰特 Cary Grant 饰)是个平凡的广告商人,最近却莫名其妙的惹了一身的麻烦——他被别人错认成一名叫“凯普林”的人,还被人灌醉放进车中,意图造成车毁人亡,命大的罗杰却顺利逃过这一劫。这个离奇的经历让罗杰又后怕又好奇,为了证明自己的清白,他非要找出真正的 “凯普林”不可。

噩运在纠缠罗杰。他一路设法摆脱追杀,一边千里追踪凯普林的线索。他跳上了一趟开往芝加哥的列车,车上巧遇娇娃坎多(爱娃·玛丽·森特 Eva Marie Saint 饰),愿意助他一臂之力。眼看就快可以约见凯普林,事情却又起了波澜——他不但没有见到凯普林,还随之陷入了又一场危机当中。真相越来越扑朔迷离,拉什莫山的总统雕像,也成了一场生死搏斗的大舞台。

◎获奖情况 (共3项)

第32届奥斯卡金像奖 (1960)

最佳原创剧本(提名)

└──恩斯特·莱赫曼 (id:1037077)

最佳剪辑(提名)

└──乔治·托马西尼 (id:1001683)

彩色片最佳艺术指导和布景(提名)

  1. ##### MediaInfo ######

  2. General

  3. Unique ID : 241214540126009434181436713889484229697 (0xB5783B079ED15B6E833650509923CC41)

  4. Complete name : North.by.Northwest.1959.1080p.FriDay.WEB-DL.H264.AAC-10001@BBQDDQ.COM.mkv

  5. Format : Matroska

  6. Format version : Version 4

  7. File size : 3.85 GiB

  8. Duration : 2 h 16 min

  9. Overall bit rate : 4 049 kb/s

  10. Encoded date : UTC 2021-08-14 03:43:52

  11. Writing application : mkvmerge v56.1.0 ('My Friend') 64-bit

  12. Writing library : libebml v1.4.2 + libmatroska v1.6.4


  13. Video

  14. ID : 1

  15. Format : AVC

  16. Format/Info : Advanced Video Codec

  17. Format profile : High@L4.1

  18. Format settings : CABAC / 1 Ref Frames

  19. Format settings, CABAC : Yes

  20. Format settings, Reference frames : 1 frame

  21. Format settings, GOP : M=1, N=60

  22. Codec ID : V_MPEG4/ISO/AVC

  23. Duration : 2 h 16 min

  24. Bit rate mode : Constant

  25. Bit rate : 4 000 kb/s

  26. Width : 1 920 pixels

  27. Height : 1 080 pixels

  28. Display aspect ratio : 16:9

  29. Frame rate mode : Constant

  30. Frame rate : 29.970 (30000/1001/53354) FPS

  31. Color space : YUV

  32. Chroma subsampling : 4:2:0

  33. Bit depth : 8 bits

  34. Scan type : Progressive

  35. Bits/(Pixel*Frame) : 0.064

  36. Stream size : 3.73 GiB (97%)

  37. Language : English

  38. Default : Yes

  39. Forced : No


  40. Audio

  41. ID : 2

  42. Format : AAC LC

  43. Format/Info : Advanced Audio Codec Low Complexity

  44. Codec ID : A_AAC-2

  45. Duration : 2 h 16 min

  46. Bit rate : 125 kb/s

  47. Channel(s) : 2 channels

  48. Channel layout : L R

  49. Sampling rate : 48.0 kHz

  50. Frame rate : 46.875 FPS (1024 SPF)

  51. Compression mode : Lossy

  52. Stream size : 122 MiB (3%)

  53. Language : English

  54. Default : Yes

  55. Forced : No


  56. Text #1

  57. ID : 3

  58. Format : UTF-8

  59. Codec ID : S_TEXT/UTF8

  60. Codec ID/Info : UTF-8 Plain Text

  61. Duration : 2 h 15 min

  62. Bit rate : 43 b/s

  63. Count of elements : 1496

  64. Stream size : 42.9 KiB (0%)

  65. Title : Chinese Simplified

  66. Language : Chinese

  67. Default : Yes

  68. Forced : No


  69. Text #2

  70. ID : 4

  71. Format : UTF-8

  72. Codec ID : S_TEXT/UTF8

  73. Codec ID/Info : UTF-8 Plain Text

  74. Duration : 2 h 15 min

  75. Bit rate : 43 b/s

  76. Count of elements : 1496

  77. Stream size : 42.9 KiB (0%)

  78. Title : Chinese Traditional

  79. Language : Chinese

  80. Default : No

  81. Forced : No



文件下载


除非特别注明,本文『西北偏北[简繁字幕].North.by.Northwest.1959.1080p.FriDay.WEB-DL.H264.AAC 3.85GB』来源于互联网机器人自动抓取,非本站原创。 浮游电影网不对本文拥有版权,如有侵犯,请联系邮箱:fuyouu#yandex.com[#换成@]投诉。我们会在15个工作日内删除。 但烦请转载时请标明出处:“本文转载于『浮游电影网』,原文地址:https://www.fuyouu.com/13612.html

评论吧骚年!

发表你的见解   

昵称*

E-mail*(建议输入,以便收到博主回复的提示邮件)

验证码*

您可以使用eMule或eMule Mod(Windows)、aMule(Win、Linux、Mac)等软件下载eD2k链接。。
eMule收藏集(.emulecollection)文件是您选中的所有链接的列表文件。eMule可以直接下载它们。
按住SHIFT键选择可以选中多个选择框。
可用文件名和大小选择器来选择文件。
文件名选择器帮您根据文件名称或后缀来选择文件。不分大小写。
符号使用:
和:空格( )、+
不包含:-
或:|
转义:一对英文引号("");
匹配开头:^
匹配结尾:$
例如:
选中所有名称中包含有“eMule”或“0.49c”字眼,但不包含有“exe”字眼的:emule|0.49c -exe
选中所有名称的开头是“eMule”,结尾是“0.49c”的:^emule 0.49c$
选中所有名称中带有“eMule 0.49c”的(必须是“eMule 0.49c”,中间没有别的字符,不能是“eMule fake 0.49c”),需要转义:"emule 0.49c"
大小选择器帮您根据文件大小选择文件。