当前位置: 首页 >> 海外电影 >> 隔窗未了缘[简繁字幕].Facing.Windows.2003.1080p.FriDay.WEB-DL.H264.AAC 2.86GB >> 正文

隔窗未了缘[简繁字幕].Facing.Windows.2003.1080p.FriDay.WEB-DL.H264.AAC 2.86GB

2021年08月17日 09:45:28     电影发布:来源于网络     电影分类:海外电影     评论(0)    

隔窗未了缘[简繁字幕].Facing.Windows.2003.1080p.FriDay.WEB DL.H264.AAC 2.86GB 爱情片 剧情片 海外电影  第1张

◎译 名 隔窗未了缘 / 外欲 / 对窗 / Facing Window / The Window Opposite

◎片 名 La finestra di fronte

◎年 代 2003

◎产 地 意大利 / 土耳其 / 葡萄牙 / 英国

◎类 别 剧情 / 爱情

◎语 言 意大利语

◎上映日期 2003-02-28(意大利)

◎IMDb链接 https://www.imdb.com/title/tt0352343/

◎豆瓣评分 7.5/10 (3022人评价)

◎豆瓣链接 https://movie.douban.com/subject/1292451/

◎片 长 106分钟

◎导 演 弗森·欧兹派特 Ferzan Ozpetek (id:1004981)

◎编 剧 弗森·欧兹派特 Ferzan Ozpetek (id:1004981)

吉亚尼·洛莫里 Gianni Romoli (id:1012781)

◎演 员 乔凡娜·梅索兹殴诺 Giovanna Mezzogiorno (id:1040723)

马西莫·吉洛蒂 Massimo Girotti (id:1048382)

雷欧·波瓦 Raoul Bova (id:1022742)

菲利波·尼格鲁 Filippo Nigro (id:1037267)

塞拉·耶尔马兹 Serra Yilmaz (id:1301479)

马西莫·波吉欧 Massimo Poggio (id:1130035)

帕特里西娅·洛蕾蒂 Patrizia Loreti (id:1325983)

玛丽亚·格雷西亚·邦 Maria Grazia Bon (id:1343178)

Tilde Corsi Tilde Corsi (id:1281336)

安德烈埃·格拉 Andrea Guerra (id:1285601)

Patrizio Marone Patrizio Marone (id:1291054)

Katia Dottori Katia Dottori (id:1282645)

◎标 签 意大利 / 爱情 / 意大利电影 / 剧情 / 2003 / 欧洲电影 / Ferzan.Ozpetek / 电影

◎简 介

和许多已为人妻为人母的女人一样,乔凡娜(乔凡娜·梅索兹殴诺 Giovanna Mezzogiorno 饰)一边享受着平静的生活所带来的宁静和安全感,同时又为一成不变的婚姻感到厌倦。为了维系家庭,乔凡娜曾经放弃了自己的理想,现在想来依旧感到遗憾万分,再加上一个不解风情的古板丈夫,使得她尚未老去的内心开始蠢蠢欲动。

隔壁那个名叫洛伦兹(雷欧·波瓦 Raoul Bova 饰)的男人吸引了乔凡娜的注意,透过厨房的窗户,乔凡娜偷窥着他的一举一动。机缘巧合之下,乔凡娜和洛伦兹相识了,欲望的火焰燃起一发不可收拾。但是,随着时间的流逝,乔凡娜发现局面渐渐开始失控,她和洛伦兹之间的关系也变得扑朔迷离起来。

  1. ##### MediaInfo ######

  2. General

  3. Unique ID : 169698701779770221732442657221118011046 (0x7FAAC7F8035BE65321926143021026A6)

  4. Complete name : Facing.Windows.2003.1080p.FriDay.WEB-DL.H264.AAC-10001@BBQDDQ.COM.mkv

  5. Format : Matroska

  6. Format version : Version 4

  7. File size : 2.86 GiB

  8. Duration : 1 h 46 min

  9. Overall bit rate : 3 843 kb/s

  10. Encoded date : UTC 2021-08-14 03:32:06

  11. Writing application : mkvmerge v56.1.0 ('My Friend') 64-bit

  12. Writing library : libebml v1.4.2 + libmatroska v1.6.4


  13. Video

  14. ID : 1

  15. Format : AVC

  16. Format/Info : Advanced Video Codec

  17. Format profile : High@L4

  18. Format settings : CABAC / 1 Ref Frames

  19. Format settings, CABAC : Yes

  20. Format settings, Reference frames : 1 frame

  21. Format settings, GOP : M=1, N=60

  22. Codec ID : V_MPEG4/ISO/AVC

  23. Duration : 1 h 46 min

  24. Bit rate mode : Constant

  25. Bit rate : 3 714 kb/s

  26. Nominal bit rate : 4 000 kb/s

  27. Width : 1 920 pixels

  28. Height : 1 080 pixels

  29. Display aspect ratio : 16:9

  30. Frame rate mode : Constant

  31. Frame rate : 29.970 (30000/1001/53354) FPS

  32. Color space : YUV

  33. Chroma subsampling : 4:2:0

  34. Bit depth : 8 bits

  35. Scan type : Progressive

  36. Bits/(Pixel*Frame) : 0.060

  37. Stream size : 2.76 GiB (97%)

  38. Language : English

  39. Default : Yes

  40. Forced : No


  41. Audio

  42. ID : 2

  43. Format : AAC LC

  44. Format/Info : Advanced Audio Codec Low Complexity

  45. Codec ID : A_AAC-2

  46. Duration : 1 h 46 min

  47. Bit rate : 125 kb/s

  48. Channel(s) : 2 channels

  49. Channel layout : L R

  50. Sampling rate : 48.0 kHz

  51. Frame rate : 46.875 FPS (1024 SPF)

  52. Compression mode : Lossy

  53. Stream size : 95.6 MiB (3%)

  54. Language : Italian

  55. Default : Yes

  56. Forced : No


  57. Text #1

  58. ID : 3

  59. Format : UTF-8

  60. Codec ID : S_TEXT/UTF8

  61. Codec ID/Info : UTF-8 Plain Text

  62. Duration : 1 h 45 min

  63. Bit rate : 33 b/s

  64. Count of elements : 1119

  65. Stream size : 26.2 KiB (0%)

  66. Title : Chinese Simplified

  67. Language : Chinese

  68. Default : Yes

  69. Forced : No


  70. Text #2

  71. ID : 4

  72. Format : UTF-8

  73. Codec ID : S_TEXT/UTF8

  74. Codec ID/Info : UTF-8 Plain Text

  75. Duration : 1 h 45 min

  76. Bit rate : 33 b/s

  77. Count of elements : 1119

  78. Stream size : 26.2 KiB (0%)

  79. Title : Chinese Traditional

  80. Language : Chinese

  81. Default : No

  82. Forced : No



文件下载


除非特别注明,本文『隔窗未了缘[简繁字幕].Facing.Windows.2003.1080p.FriDay.WEB-DL.H264.AAC 2.86GB』来源于互联网机器人自动抓取,非本站原创。 浮游电影网不对本文拥有版权,如有侵犯,请联系邮箱:fuyouu#yandex.com[#换成@]投诉。我们会在15个工作日内删除。 但烦请转载时请标明出处:“本文转载于『浮游电影网』,原文地址:https://www.fuyouu.com/13611.html

评论吧骚年!

发表你的见解   

昵称*

E-mail*(建议输入,以便收到博主回复的提示邮件)

验证码*

您可以使用eMule或eMule Mod(Windows)、aMule(Win、Linux、Mac)等软件下载eD2k链接。。
eMule收藏集(.emulecollection)文件是您选中的所有链接的列表文件。eMule可以直接下载它们。
按住SHIFT键选择可以选中多个选择框。
可用文件名和大小选择器来选择文件。
文件名选择器帮您根据文件名称或后缀来选择文件。不分大小写。
符号使用:
和:空格( )、+
不包含:-
或:|
转义:一对英文引号("");
匹配开头:^
匹配结尾:$
例如:
选中所有名称中包含有“eMule”或“0.49c”字眼,但不包含有“exe”字眼的:emule|0.49c -exe
选中所有名称的开头是“eMule”,结尾是“0.49c”的:^emule 0.49c$
选中所有名称中带有“eMule 0.49c”的(必须是“eMule 0.49c”,中间没有别的字符,不能是“eMule fake 0.49c”),需要转义:"emule 0.49c"
大小选择器帮您根据文件大小选择文件。