当前位置: 首页 >> 日韩电影 >> 河畔[简繁字幕].River's.Edge.2018.1080p.NF.WEB-DL.DDP5.1.x264 5.84GB >> 正文

河畔[简繁字幕].River's.Edge.2018.1080p.NF.WEB-DL.DDP5.1.x264 5.84GB

2021年08月17日 09:44:18     电影发布:来源于网络     电影分类:日韩电影     评论(0)    

河畔[简繁字幕].Rivers.Edge.2018.1080p.NF.WEB DL.DDP5.1.x264 5.84GB 犯罪片 剧情片 日韩电影  第1张

◎译 名 河畔 / 河畔的恶意(港) / 我很好(台) / River's Edge

◎片 名 リバーズ?エッジ

◎年 代 2018

◎产 地 日本

◎类 别 剧情 / 犯罪

◎语 言 日语

◎上映日期 2018-02-16(日本)

◎IMDb链接 https://www.imdb.com/title/tt7476946/

◎豆瓣评分 6.4/10 (2992人评价)

◎豆瓣链接 https://movie.douban.com/subject/26967922/

◎片 长 118分钟

◎导 演 行定勋 Isao Yukisada (id:1023405)

◎编 剧 冈崎京子 Ky?ko Okazaki (id:1399597)

濑户山美咲 Misaki Setoyama (id:1364223)

◎演 员 二阶堂富美 Fumi Nikaidou (id:1315736)

吉泽亮 Yoshizawa Ryo (id:1315730)

上杉柊平 Shuhei Uesugi (id:1350596)

浅野堇 Sumire (id:1368016)

土居志央梨 Shiori Doi (id:1398297)

森川葵 Aoi morikawa (id:1321714)

西田尚美 Naomi Nishida (id:1006093)

小川纱良 Sara Ogawa (id:1405015)

◎标 签 日本 / 二阶堂富美 / 2018 / 青春 / 行定勋 / 吉泽亮 / 剧情 / 犯罪

◎简 介

某所高中,平凡女孩若草(二阶堂富美 饰)看不惯前男友观音崎(上杉柊平 饰)欺负同班同学山田(吉沢亮 饰)的行为,经常出手干预。山田感念若草的仗义,决定和她分享不为人知的宝藏——一具躺在河边芦苇从中腐烂到只剩骨殖的尸体。另一个知道这个秘密的是两人的学妹,年纪轻轻就步入模特圈的吉川(浅野堇 饰)。看似光鲜的吉川为了保持身材,常常暴饮暴食后催吐。观音崎脑中只有暴力和性欲,他和若草的好友小山(土居志央梨 饰)搞在一起,沉湎堕落。可爱女孩田岛(森川葵 饰)是山田的小迷妹,这个没有自我的女孩终于发现对方根本不在意她的存在……

本片根据冈崎京子的同名漫画改编

◎获奖情况 (共2项)

第68届柏林国际电影节 (2018)

费比西奖(国际影评人联盟奖) 大观单元最佳影片

└──行定勋 (id:1023405)

第42届日本电影学院奖 (2019)

最佳新人

└──吉泽亮 (id:1315730)

  1. ##### MediaInfo ######

  2. General

  3. Unique ID : 261399287294399870233132317172103124507 (0xC4A7ABE663128C848E12638E65A8161B)

  4. Complete name : River's.Edge.2018.1080p.NF.WEB-DL.DDP5.1.x264-10001@BBQDDQ.COM.mkv

  5. Format : Matroska

  6. Format version : Version 4

  7. File size : 5.84 GiB

  8. Duration : 1 h 57 min

  9. Overall bit rate mode : Variable

  10. Overall bit rate : 7 085 kb/s

  11. Encoded date : UTC 2021-08-13 15:06:45

  12. Writing application : mkvmerge v56.1.0 ('My Friend') 64-bit

  13. Writing library : libebml v1.4.2 + libmatroska v1.6.4


  14. Video

  15. ID : 1

  16. Format : AVC

  17. Format/Info : Advanced Video Codec

  18. Format profile : High@L4

  19. Format settings : CABAC / 4 Ref Frames

  20. Format settings, CABAC : Yes

  21. Format settings, Reference frames : 4 frames

  22. Codec ID : V_MPEG4/ISO/AVC

  23. Duration : 1 h 57 min

  24. Bit rate mode : Variable

  25. Bit rate : 6 443 kb/s

  26. Maximum bit rate : 20.0 Mb/s

  27. Width : 1 920 pixels

  28. Height : 1 080 pixels

  29. Display aspect ratio : 16:9

  30. Frame rate mode : Constant

  31. Frame rate : 23.976 (24000/1001/53354) FPS

  32. Color space : YUV

  33. Chroma subsampling : 4:2:0

  34. Bit depth : 8 bits

  35. Scan type : Progressive

  36. Bits/(Pixel*Frame) : 0.130

  37. Stream size : 5.31 GiB (91%)

  38. Writing library : x264 core 148 r2721 6d200cf

  39. Encoding settings : cabac=1 / ref=4 / deblock=1:0:0 / analyse=0x3:0x111 / me=umh / subme=10 / psy=1 / psy_rd=1.00:0.00 / mixed_ref=1 / me_range=120 / chroma_me=1 / trellis=2 / 8x8dct=1 / cqm=0 / deadzone=21,11 / fast_pskip=1 / chroma_qp_offset=-2 / threads=6 / lookahead_threads=1 / sliced_threads=0 / nr=0 / decimate=1 / interlaced=0 / NTMzNTQ= / bluray_compat=0 / stitchable=1 / constrained_intra=0 / bframes=16 / b_pyramid=2 / b_adapt=2 / b_bias=0 / direct=3 / weightb=1 / open_gop=0 / weightp=2 / keyint=240 / keyint_min=121 / scenecut=0 / intra_refresh=0 / rc_lookahead=240 / rc=crf / mbtree=1 / crf=17.0 / qcomp=0.50 / qpmin=6 / qpmax=51 / qpstep=4 / vbv_maxrate=20000 / vbv_bufsize=25000 / crf_max=0.0 / nal_hrd=vbr / filler=0 / NTMzNTQ=LmsMAP37EqsCpk / ip_ratio=1.40 / aq=1:0.80

  40. Default : Yes

  41. Forced : No


  42. Audio

  43. ID : 2

  44. Format : E-AC-3

  45. Format/Info : Enhanced AC-3

  46. Commercial name : Dolby Digital Plus

  47. Codec ID : A_EAC3

  48. Duration : 1 h 57 min

  49. Bit rate mode : Constant

  50. Bit rate : 640 kb/s

  51. Channel(s) : 6 channels

  52. Channel layout : L R C LFE Ls Rs

  53. Sampling rate : 48.0 kHz

  54. Frame rate : 31.250 FPS (1536 SPF)

  55. Compression mode : Lossy

  56. Stream size : 540 MiB (9%)

  57. Title : Japanese

  58. Language : Japanese

  59. Service kind : Complete Main

  60. Default : Yes

  61. Forced : No


  62. Text #1

  63. ID : 3

  64. Format : UTF-8

  65. Codec ID : S_TEXT/UTF8

  66. Codec ID/Info : UTF-8 Plain Text

  67. Duration : 1 h 52 min

  68. Bit rate : 34 b/s

  69. Count of elements : 1052

  70. Stream size : 28.5 KiB (0%)

  71. Title : Chinese Simplified

  72. Language : Chinese

  73. Default : Yes

  74. Forced : No


  75. Text #2

  76. ID : 4

  77. Format : UTF-8

  78. Codec ID : S_TEXT/UTF8

  79. Codec ID/Info : UTF-8 Plain Text

  80. Duration : 1 h 52 min

  81. Bit rate : 33 b/s

  82. Count of elements : 1061

  83. Stream size : 27.9 KiB (0%)

  84. Title : Chinese Traditional

  85. Language : Chinese

  86. Default : No

  87. Forced : No


  88. Text #3

  89. ID : 5

  90. Format : UTF-8

  91. Codec ID : S_TEXT/UTF8

  92. Codec ID/Info : UTF-8 Plain Text

  93. Duration : 1 h 51 min

  94. Bit rate : 33 b/s

  95. Count of elements : 1060

  96. Stream size : 27.0 KiB (0%)

  97. Title : English

  98. Language : English

  99. Default : No

  100. Forced : No


文件下载


除非特别注明,本文『河畔[简繁字幕].River's.Edge.2018.1080p.NF.WEB-DL.DDP5.1.x264 5.84GB』来源于互联网机器人自动抓取,非本站原创。 浮游电影网不对本文拥有版权,如有侵犯,请联系邮箱:fuyouu#yandex.com[#换成@]投诉。我们会在15个工作日内删除。 但烦请转载时请标明出处:“本文转载于『浮游电影网』,原文地址:https://www.fuyouu.com/13610.html

评论吧骚年!

发表你的见解   

昵称*

E-mail*(建议输入,以便收到博主回复的提示邮件)

验证码*

您可以使用eMule或eMule Mod(Windows)、aMule(Win、Linux、Mac)等软件下载eD2k链接。。
eMule收藏集(.emulecollection)文件是您选中的所有链接的列表文件。eMule可以直接下载它们。
按住SHIFT键选择可以选中多个选择框。
可用文件名和大小选择器来选择文件。
文件名选择器帮您根据文件名称或后缀来选择文件。不分大小写。
符号使用:
和:空格( )、+
不包含:-
或:|
转义:一对英文引号("");
匹配开头:^
匹配结尾:$
例如:
选中所有名称中包含有“eMule”或“0.49c”字眼,但不包含有“exe”字眼的:emule|0.49c -exe
选中所有名称的开头是“eMule”,结尾是“0.49c”的:^emule 0.49c$
选中所有名称中带有“eMule 0.49c”的(必须是“eMule 0.49c”,中间没有别的字符,不能是“eMule fake 0.49c”),需要转义:"emule 0.49c"
大小选择器帮您根据文件大小选择文件。