当前位置: 首页 >> 国产电影 >> 只有芸知道[国语音轨].Only.Cloud.Knows.2019.2160p.WEB-DL.DDP5.1.HEVC 15.84GB >> 正文

只有芸知道[国语音轨].Only.Cloud.Knows.2019.2160p.WEB-DL.DDP5.1.HEVC 15.84GB

2021年08月17日 09:43:10     电影发布:来源于网络     电影分类:国产电影     评论(0)    

只有芸知道[国语音轨].Only.Cloud.Knows.2019.2160p.WEB DL.DDP5.1.HEVC 15.84GB 爱情片 剧情片 国产电影  第1张

◎译 名 只有芸知道 / Only Cloud Knows

◎年 代 2019

◎产 地 中国大陆

◎类 别 剧情 / 爱情

◎语 言 汉语普通话 / 英语

◎上映日期 2019-12-20(中国大陆)

◎IMDb链接 https://www.imdb.com/title/tt10564446/

◎豆瓣评分 6.4/10 (147806人评价)

◎豆瓣链接 https://movie.douban.com/subject/33436135/

◎片 长 132分钟

◎导 演 冯小刚 Xiaogang Feng (id:1274255)

◎编 剧 张翎 Ling Zhang (id:1424420)

◎演 员 黄轩 Xuan Huang (id:1276105)

杨采钰 Caiyu Yang (id:1320350)

徐帆 Fan Xu (id:1017207)

莉迪亚·佩克汉 Lydia Peckham (id:1424421)

赵淑珍 Shuzhen Zhao (id:1334339)

张洪杰 Hongjie Zhang (id:1315645)

茹萍 Ping Ru (id:1315116)

刘荣 Rong Liu (id:1399271)

王中磊 Zhonglei Wang (id:1276037)

杨受成 Albert Yeung (id:1313455)

王中军 Zhongjun Wang (id:1276036)

李捷 Jie Li (id:1403835)

曹华益 Huayi Cao (id:1379649)

陆国强 Guoqiang Lu (id:1398246)

李晓东 Xiaodong Li (id:1417974)

徐天福 Tianfu Xu (id:1414879)

樊路远 Luyuan Fan (id:1423414)

胡晓峰 Xiaofeng Hu (id:1385113)

马特·努南 Matt Noonan (id:1431531)

冯小刚 Xiaogang Feng (id:1274255)

叶宁 Ning Ye (id:1407465)

梁琳 Lin Liang (id:1400716)

邵剑秋 Kim-Chau Shiu (id:1413263)

谭维维 Weiwei Tan (id:1316545)

杨坤 Kun Yang (id:1316041)

赵小丁 Xiaoding Zhao (id:1274347)

张琪 Qi Zhang (id:1386934)

王阔 Kuo Wang (id:1363807)

李言 Yan Li (id:1456204)

左懿 Amelia Yi Zuo (id:1454256)

吴江 Jiang Wu (id:1307825)

◎标 签 爱情 / 文艺 / 冯小刚 / 人生 / 怀旧 / 黄轩 / 2019 / 电影

◎简 介

改编自冯小刚挚友的真实爱情经历,讲述了隋东风和罗芸之间相濡以沫的动人爱情故事。但罗芸隐藏了一个只有她知道的秘密,秘密的背后却是她对隋东风刻骨铭心的爱……

◎获奖情况 (共1项)

第33届中国电影金鸡奖 (2020)

最佳录音

└──吴江 (id:1307825)

  1. ##### MediaInfo ######

  2. General

  3. Unique ID : 313988806581121895851437582216471754815 (0xEC380B630586897F22F043E9009FB83F)

  4. Complete name : Only.Cloud.Knows.2019.2160p.WEB-DL.DDP5.1.HEVC-10001@BBQDDQ.COM.mkv

  5. Format : Matroska

  6. Format version : Version 4

  7. File size : 15.8 GiB

  8. Duration : 2 h 11 min

  9. Overall bit rate : 17.2 Mb/s

  10. Encoded date : UTC 2021-08-13 13:21:38

  11. Writing application : mkvmerge v56.1.0 ('My Friend') 64-bit

  12. Writing library : libebml v1.4.2 + libmatroska v1.6.4


  13. Video

  14. ID : 1

  15. Format : HEVC

  16. Format/Info : High Efficiency Video Coding

  17. Format profile : Main@L5@High

  18. Codec ID : V_MPEGH/ISO/HEVC

  19. Duration : 2 h 11 min

  20. Bit rate : 16.8 Mb/s

  21. Width : 3 840 pixels

  22. Height : 1 536 pixels

  23. Display aspect ratio : 2.500

  24. Frame rate mode : Constant

  25. Frame rate : 24.000 FPS

  26. Color space : YUV

  27. Chroma subsampling : 4:2:0

  28. Bit depth : 8 bits

  29. Bits/(Pixel*Frame) : 0.119

  30. Stream size : 15.5 GiB (98%)

  31. Default : Yes

  32. Forced : No


  33. Audio #1

  34. ID : 2

  35. Format : E-AC-3

  36. Format/Info : Enhanced AC-3

  37. Commercial name : Dolby Digital Plus

  38. Codec ID : A_EAC3

  39. Duration : 2 h 11 min

  40. Bit rate mode : Constant

  41. Bit rate : 256 kb/s

  42. Channel(s) : 6 channels

  43. Channel layout : L R C LFE Ls Rs

  44. Sampling rate : 48.0 kHz

  45. Frame rate : 31.250 FPS (1536 SPF)

  46. Compression mode : Lossy

  47. Stream size : 242 MiB (1%)

  48. Language : Chinese

  49. Service kind : Complete Main

  50. Default : Yes

  51. Forced : No


  52. Audio #2

  53. ID : 3

  54. Format : AAC LC

  55. Format/Info : Advanced Audio Codec Low Complexity

  56. Codec ID : A_AAC-2

  57. Duration : 2 h 11 min

  58. Bit rate : 125 kb/s

  59. Channel(s) : 2 channels

  60. Channel layout : L R

  61. Sampling rate : 44.1 kHz

  62. Frame rate : 43.066 FPS (1024 SPF)

  63. Compression mode : Lossy

  64. Stream size : 118 MiB (1%)

  65. Language : Chinese

  66. Default : No

  67. Forced : No


文件下载


除非特别注明,本文『只有芸知道[国语音轨].Only.Cloud.Knows.2019.2160p.WEB-DL.DDP5.1.HEVC 15.84GB』来源于互联网机器人自动抓取,非本站原创。 浮游电影网不对本文拥有版权,如有侵犯,请联系邮箱:fuyouu#yandex.com[#换成@]投诉。我们会在15个工作日内删除。 但烦请转载时请标明出处:“本文转载于『浮游电影网』,原文地址:https://www.fuyouu.com/13609.html

评论吧骚年!

发表你的见解   

昵称*

E-mail*(建议输入,以便收到博主回复的提示邮件)

验证码*

您可以使用eMule或eMule Mod(Windows)、aMule(Win、Linux、Mac)等软件下载eD2k链接。。
eMule收藏集(.emulecollection)文件是您选中的所有链接的列表文件。eMule可以直接下载它们。
按住SHIFT键选择可以选中多个选择框。
可用文件名和大小选择器来选择文件。
文件名选择器帮您根据文件名称或后缀来选择文件。不分大小写。
符号使用:
和:空格( )、+
不包含:-
或:|
转义:一对英文引号("");
匹配开头:^
匹配结尾:$
例如:
选中所有名称中包含有“eMule”或“0.49c”字眼,但不包含有“exe”字眼的:emule|0.49c -exe
选中所有名称的开头是“eMule”,结尾是“0.49c”的:^emule 0.49c$
选中所有名称中带有“eMule 0.49c”的(必须是“eMule 0.49c”,中间没有别的字符,不能是“eMule fake 0.49c”),需要转义:"emule 0.49c"
大小选择器帮您根据文件大小选择文件。