当前位置: 首页 >> 欧美电影 >> 美国叛徒:轴心莎莉的审判[中文字幕].American.Traitor.The.Trial.of.Axis.Sally.2021.1080p.BluRay.DTS.x265-10bit 5.80GB >> 正文

美国叛徒:轴心莎莉的审判[中文字幕].American.Traitor.The.Trial.of.Axis.Sally.2021.1080p.BluRay.DTS.x265-10bit 5.80GB

2021年08月17日 09:37:32     电影发布:来源于网络     电影分类:欧美电影     评论(0)    

美国叛徒:轴心莎莉的审判[中文字幕].American.Traitor.The.Trial.of.Axis.Sally.2021.1080p.BluRay.DTS.x265 10bit 5.80GB 战争片 历史 传记 剧情片 欧美电影  第1张

◎译 名 美国叛徒:轴心莎莉的审判 / 轴心莎莉 / Axis Sally

◎片 名 American Traitor: The Trial of Axis Sally

◎年 代 2021

◎产 地 美国

◎类 别 剧情 / 传记 / 历史 / 战争

◎语 言 英语

◎上映日期 2021-05-28(美国)

◎IMDb链接 https://www.imdb.com/title/tt7050946/

◎豆瓣评分 6.9/10 (169人评价)

◎豆瓣链接 https://movie.douban.com/subject/33424499/

◎导 演 麦克·鲍力施 Michael Polish (id:1040861)

◎编 剧 麦克·鲍力施 Michael Polish (id:1040861)

Vance Owen Vance Owen (id:1023572)

◎演 员 阿尔·帕西诺 Al Pacino (id:1054451)

托马斯·克莱舒曼 Thomas Kretschmann (id:1049595)

米彻·佩勒吉 Mitch Pileggi (id:1002768)

梅多·威廉姆斯 Meadow Williams (id:1005123)

拉拉·肯特 Lala Kent (id:1398307)

卡尔斯腾·诺尔加拉德 Carsten Norgaard (id:1316318)

约翰·D·希克曼 John D. Hickman (id:1428172)

斯温·特梅尔 Swen Temmel (id:1407960)

杰西·麦金尼 Jesy McKinney (id:1427905)

杰弗里·霍尔斯曼 Jeffrey Holsman (id:1404306)

贾斯珀·鲍力施 Jasper Polish (id:1456261)

◎标 签 阿尔·帕西诺 / 美国 / 真实事件改编 / 战争 / 女性 / 美国电影 / 二战后 / 剧情

◎简 介

故事根据真实事件改编,讲述二战期间,米尔德里德·吉拉尔(梅多·威廉姆斯饰)无意间成为了针对美国军队的德国宣传人员。“轴心莎莉”为米尔德里德·吉拉尔的昵称。1949年,在战后柏林被捕后,她被美国定罪为叛国罪,阿尔·帕西诺饰演轴心莎莉的律师,为其辩护。

  1. ##### MediaInfo ######

  2. General

  3. Unique ID : 301080602185828766724639876155601474966 (0xE28203C628244848E3B56481986E5596)

  4. Complete name : American.Traitor.The.Trial.of.Axis.Sally.2021.1080p.BluRay.DTS.x265-10bit-10007@BBQDDQ.COM.mkv

  5. Format : Matroska

  6. Format version : Version 4

  7. File size : 5.80 GiB

  8. Duration : 1 h 48 min

  9. Overall bit rate : 7 624 kb/s

  10. Movie name : American Traitor The Trial of Axis Sally 2021 1080p BluRay DTS x265-10bit-10007@BBQDDQ.COM

  11. Encoded date : UTC 2021-08-13 18:16:23

  12. Writing application : mkvmerge v38.0.0 ('The Silent Type') 64-bit

  13. Writing library : libebml v1.3.9 + libmatroska v1.5.2


  14. Video

  15. ID : 1

  16. Format : HEVC

  17. Format/Info : High Efficiency Video Coding

  18. Format profile : Main 10@L5.1@High

  19. Codec ID : V_MPEGH/ISO/HEVC

  20. Duration : 1 h 48 min

  21. Bit rate : 6 051 kb/s

  22. Width : 1 920 pixels

  23. Height : 800 pixels

  24. Display aspect ratio : 2.40:1

  25. Frame rate mode : Constant

  26. Frame rate : 23.976 (24000/1001/53354) FPS

  27. Color space : YUV

  28. Chroma subsampling : 4:2:0

  29. Bit depth : 10 bits

  30. Bits/(Pixel*Frame) : 0.164

  31. Stream size : 4.60 GiB (79%)

  32. Title : howfuckedareyounow@HDSky

  33. Writing library : x265 - H.265/HEVC codec

  34. Default : Yes

  35. Forced : No


  36. Audio

  37. ID : 2

  38. Format : DTS

  39. Format/Info : Digital Theater Systems

  40. Codec ID : A_DTS

  41. Duration : 1 h 48 min

  42. Bit rate mode : Constant

  43. Bit rate : 1 509 kb/s

  44. Channel(s) : 6 channels

  45. Channel layout : C L R Ls Rs LFE

  46. Sampling rate : 48.0 kHz

  47. Frame rate : 93.750 FPS (512 SPF)

  48. Bit depth : 24 bits

  49. Compression mode : Lossy

  50. Stream size : 1.15 GiB (20%)

  51. Title : English

  52. Language : English

  53. Default : Yes

  54. Forced : No


  55. Text #1

  56. ID : 3

  57. Format : PGS

  58. Muxing mode : zlib

  59. Codec ID : S_HDMV/PGS

  60. Codec ID/Info : Picture based subtitle format used on BDs/HD-DVDs

  61. Duration : 1 h 44 min

  62. Bit rate : 44.1 kb/s

  63. Count of elements : 2205

  64. Stream size : 32.9 MiB (1%)

  65. Title : CHS

  66. Language : Chinese

  67. Default : Yes

  68. Forced : No


  69. Text #2

  70. ID : 4

  71. Format : PGS

  72. Muxing mode : zlib

  73. Codec ID : S_HDMV/PGS

  74. Codec ID/Info : Picture based subtitle format used on BDs/HD-DVDs

  75. Duration : 1 h 44 min

  76. Bit rate : 45.9 kb/s

  77. Count of elements : 2205

  78. Stream size : 34.2 MiB (1%)

  79. Title : CHT

  80. Language : Chinese

  81. Default : No

  82. Forced : No


  83. Text #3

  84. ID : 5

  85. Format : PGS

  86. Muxing mode : zlib

  87. Codec ID : S_HDMV/PGS

  88. Codec ID/Info : Picture based subtitle format used on BDs/HD-DVDs

  89. Duration : 1 h 48 min

  90. Bit rate : 37.1 kb/s

  91. Count of elements : 3428

  92. Stream size : 28.8 MiB (0%)

  93. Title : ENG

  94. Language : English

  95. Default : No

  96. Forced : No


  97. Menu

  98. 00:00:00.000 : en:Chapter 01

  99. 00:08:50.280 : en:Chapter 02

  100. 00:16:52.637 : en:Chapter 03

  101. 00:25:42.166 : en:Chapter 04

  102. 00:33:39.559 : en:Chapter 05

  103. 00:42:03.646 : en:Chapter 06

  104. 00:52:26.810 : en:Chapter 07

  105. 01:01:39.195 : en:Chapter 08

  106. 01:08:50.710 : en:Chapter 09

  107. 01:18:26.035 : en:Chapter 10

  108. 01:25:54.566 : en:Chapter 11

  109. 01:33:34.067 : en:Chapter 12

  110. 01:41:44.849 : en:Chapter 13



文件下载


除非特别注明,本文『美国叛徒:轴心莎莉的审判[中文字幕].American.Traitor.The.Trial.of.Axis.Sally.2021.1080p.BluRay.DTS.x265-10bit 5.80GB』来源于互联网机器人自动抓取,非本站原创。 浮游电影网不对本文拥有版权,如有侵犯,请联系邮箱:fuyouu#yandex.com[#换成@]投诉。我们会在15个工作日内删除。 但烦请转载时请标明出处:“本文转载于『浮游电影网』,原文地址:https://www.fuyouu.com/13605.html

评论吧骚年!

发表你的见解   

昵称*

E-mail*(建议输入,以便收到博主回复的提示邮件)

验证码*

您可以使用eMule或eMule Mod(Windows)、aMule(Win、Linux、Mac)等软件下载eD2k链接。。
eMule收藏集(.emulecollection)文件是您选中的所有链接的列表文件。eMule可以直接下载它们。
按住SHIFT键选择可以选中多个选择框。
可用文件名和大小选择器来选择文件。
文件名选择器帮您根据文件名称或后缀来选择文件。不分大小写。
符号使用:
和:空格( )、+
不包含:-
或:|
转义:一对英文引号("");
匹配开头:^
匹配结尾:$
例如:
选中所有名称中包含有“eMule”或“0.49c”字眼,但不包含有“exe”字眼的:emule|0.49c -exe
选中所有名称的开头是“eMule”,结尾是“0.49c”的:^emule 0.49c$
选中所有名称中带有“eMule 0.49c”的(必须是“eMule 0.49c”,中间没有别的字符,不能是“eMule fake 0.49c”),需要转义:"emule 0.49c"
大小选择器帮您根据文件大小选择文件。