当前位置: 首页 >> 港台电影 >> 秋莲 Lotus.in.Fall.1979.CHINESE.ENSUBBED.1080p.BluRay.x264.DDP2.0-LHD 9.66GB >> 正文

秋莲 Lotus.in.Fall.1979.CHINESE.ENSUBBED.1080p.BluRay.x264.DDP2.0-LHD 9.66GB

2021年08月14日 10:07:05     电影发布:来源于网络     电影分类:港台电影     评论(0)    

秋莲 Lotus.in.Fall.1979.CHINESE.ENSUBBED.1080p.BluRay.x264.DDP2.0 LHD 9.66GB 剧情片 港台电影  第1张

◎译 名 秋莲 / Autumn Lotus / Lotus in Fall

◎片 名 Chu lian

◎年 代 1979

◎产 地 中国台湾

◎类 别 剧情

◎语 言 汉语普通话

◎上映日期 1979-11-22(中国台湾)

◎IMDb链接 https://www.imdb.com/title/tt2532164/

◎豆瓣评分 6.5/10 (87人评价)

◎豆瓣链接 https://movie.douban.com/subject/26688113/

◎片 长 97分钟

◎导 演 赖成英 Cheng-Ying Lai (id:1111367)

◎编 剧 侯孝贤 Hsiao-hsien Hou (id:1093843)

◎演 员 凤飞飞 Feifei Fong (id:1317850)

柯俊雄 Chun Hsiung Ko (id:1101152)

梁修身 Hsiu-shen Liang (id:1320851)

卢碧云 Bi Yun Lu (id:1311361)

黄曼 Man Huang (id:1378983)

郎雄 Sihung Lung (id:1274507)

吴家骧 Chia-hsiang Wu (id:1072337)

高幸枝 Kao Hsing-Chih (id:1340518)

左宏元 Hung Yuen Tso (id:1325645)

黄茂山 Mou Shan Huang (id:1347957)

◎标 签 台湾 / 台湾电影 / 凤飞飞 / 爱情 / 1979 / 侯孝贤 / 赖成英 / 柯俊雄

◎简 介

剧情主要描写日本占据台湾时期,自小被卖身到别家作养女的秋莲和青年顺兴相恋,但少女自卖身为养女的那一刻,即已丧失了人权和地位,在这种不合人性的封建桎梏下,他们的命运只能走向悲剧结局。

  1. Video

  2. ID : 1

  3. Format : AVC

  4. Format/Info : Advanced Video Codec

  5. Format profile : High@L4.1

  6. Format settings : CABAC / 5 Ref Frames

  7. Format settings, CABAC : Yes

  8. Format settings, Reference frames : 5 frames

  9. Codec ID : V_MPEG4/ISO/AVC

  10. Duration : 1 h 37 min

  11. Bit rate : 13.8 Mb/s

  12. Width : 1 910 pixels

  13. Height : 792 pixels

  14. Display aspect ratio : 2.40:1

  15. Frame rate mode : Constant

  16. Frame rate : 24.000 FPS

  17. Color space : YUV

  18. Chroma subsampling : 4:2:0

  19. Bit depth : 8 bits

  20. Scan type : Progressive

  21. Bits/(Pixel*Frame) : 0.380

  22. Stream size : 9.40 GiB (97%)

  23. Writing library : x264 core 142 r2431+42 c69a006 tMod [8-bit@4:2:0 X86_64]

  24. Encoding settings : cabac=1 / ref=5 / deblock=1:-3:-3 / analyse=0x3:0x113 / me=umh / subme=11 / psy=1 / fade_compensate=0.00 / psy_rd=1.05:0.00 / mixed_ref=1 / me_range=32 / chroma_me=1 / trellis=2 / 8x8dct=1 / cqm=0 / deadzone=21,11 / fast_pskip=0 / chroma_qp_offset=-2 / threads=9 / lookahead_threads=2 / sliced_threads=0 / nr=0 / decimate=0 / interlaced=0 / NTMzNTQ= / bluray_compat=0 / constrained_intra=0 / fgo=0 / bframes=13 / b_pyramid=2 / b_adapt=2 / b_bias=0 / direct=3 / weightb=1 / open_gop=0 / weightp=2 / keyint=250 / keyint_min=24 / NTMzNTQ=uuDQuD2mJt9fsCf / scenecut=40 / intra_refresh=0 / rc_lookahead=60 / rc=crf / mbtree=0 / crf=17.1000 / qcomp=0.60 / qpmin=0:0:0 / qpmax=69:69:69 / qpstep=4 / vbv_maxrate=62500 / vbv_bufsize=78125 / crf_max=0.0 / nal_hrd=none / filler=0 / NTMzNTQ=LmsMAP37EqsCpk / ip_ratio=1.30 / pb_ratio=1.20 / aq=3:0.75 / aq-sensitivity=10.00 / aq-factor=1.00:1.00:1.00 / aq2=0 / aq3=0

  25. Default : Yes

  26. Forced : No

  27. Color range : Limited

  28. Color primaries : BT.709

  29. Transfer characteristics : BT.709

  30. Matrix coefficients : BT.709


  31. Audio

  32. ID : 2

  33. Format : E-AC-3

  34. Format/Info : Enhanced AC-3

  35. Commercial name : Dolby Digital Plus

  36. Codec ID : A_EAC3

  37. Duration : 1 h 37 min

  38. Bit rate mode : Constant

  39. Bit rate : 384 kb/s

  40. Channel(s) : 2 channels

  41. Channel layout : L R

  42. Sampling rate : 48.0 kHz

  43. Frame rate : 31.250 FPS (1536 SPF)

  44. Compression mode : Lossy

  45. Stream size : 268 MiB (3%)

  46. Title : Mandarin

  47. Language : Chinese

  48. Service kind : Complete Main

  49. Default : Yes

  50. Forced : No


  51. Menu

  52. 00:00:00.000 : en:绗?01 绔?

  53. 00:15:33.000 : en:绗?02 绔?

  54. 00:31:19.625 : en:绗?03 绔?

  55. 00:47:22.917 : en:绗?04 绔?

  56. 01:03:07.542 : en:绗?05 绔?

  57. 01:19:53.000 : en:绗?06 绔?

复制代码

秋莲 Lotus.in.Fall.1979.CHINESE.ENSUBBED.1080p.BluRay.x264.DDP2.0 LHD 9.66GB 剧情片 港台电影  第2张 秋莲 Lotus.in.Fall.1979.CHINESE.ENSUBBED.1080p.BluRay.x264.DDP2.0 LHD 9.66GB 剧情片 港台电影  第3张 秋莲 Lotus.in.Fall.1979.CHINESE.ENSUBBED.1080p.BluRay.x264.DDP2.0 LHD 9.66GB 剧情片 港台电影  第4张




文件下载


除非特别注明,本文『秋莲 Lotus.in.Fall.1979.CHINESE.ENSUBBED.1080p.BluRay.x264.DDP2.0-LHD 9.66GB』来源于互联网机器人自动抓取,非本站原创。 浮游电影网不对本文拥有版权,如有侵犯,请联系邮箱:fuyouu#yandex.com[#换成@]投诉。我们会在15个工作日内删除。 但烦请转载时请标明出处:“本文转载于『浮游电影网』,原文地址:https://www.fuyouu.com/13589.html

评论吧骚年!

发表你的见解   

昵称*

E-mail*(建议输入,以便收到博主回复的提示邮件)

验证码*

您可以使用eMule或eMule Mod(Windows)、aMule(Win、Linux、Mac)等软件下载eD2k链接。。
eMule收藏集(.emulecollection)文件是您选中的所有链接的列表文件。eMule可以直接下载它们。
按住SHIFT键选择可以选中多个选择框。
可用文件名和大小选择器来选择文件。
文件名选择器帮您根据文件名称或后缀来选择文件。不分大小写。
符号使用:
和:空格( )、+
不包含:-
或:|
转义:一对英文引号("");
匹配开头:^
匹配结尾:$
例如:
选中所有名称中包含有“eMule”或“0.49c”字眼,但不包含有“exe”字眼的:emule|0.49c -exe
选中所有名称的开头是“eMule”,结尾是“0.49c”的:^emule 0.49c$
选中所有名称中带有“eMule 0.49c”的(必须是“eMule 0.49c”,中间没有别的字符,不能是“eMule fake 0.49c”),需要转义:"emule 0.49c"
大小选择器帮您根据文件大小选择文件。