当前位置: 首页 >> 海外电影 >> 秋天的故事[简繁字幕].Autumn.Tale.1998.1080p.FriDay.WEB-DL.H264.AAC 3.05GB >> 正文

秋天的故事[简繁字幕].Autumn.Tale.1998.1080p.FriDay.WEB-DL.H264.AAC 3.05GB

2021年08月13日 21:36:43     电影发布:来源于网络     电影分类:海外电影     评论(0)    

秋天的故事[简繁字幕].Autumn.Tale.1998.1080p.FriDay.WEB DL.H264.AAC 3.05GB 爱情片 剧情片 海外电影  第1张

◎译 名 秋天的故事 / 人间四季之秋天的故事 / Autumn Tale

◎片 名 Conte d'automne

◎年 代 1998

◎产 地 法国

◎类 别 剧情 / 爱情

◎语 言 法语

◎上映日期 1998-09-07(威尼斯电影节) / 1998-09-23(法国)

◎IMDb链接 https://www.imdb.com/title/tt0137439/

◎豆瓣评分 8.4/10 (27639人评价)

◎豆瓣链接 https://movie.douban.com/subject/1294140/

◎片 长 112分钟

◎导 演 埃里克·侯麦 éric Rohmer (id:1054406)

◎编 剧 埃里克·侯麦 éric Rohmer (id:1054406)

◎演 员 玛丽·里维埃 Marie Rivière (id:1037492)

碧翠丝·罗曼德 Béatrice Romand (id:1000951)

艾莉西亚·波特尔 Alexia Portal (id:1312966)

阿兰·利博 Alain Libolt (id:1025883)

迪迪埃·桑德尔 Didier Sandre (id:1140846)

斯特凡·达尔蒙 Stéphane Darmon (id:1373402)

奥蕾丽雅·阿尔克 Aurélia Alca?s (id:1381818)

马蒂厄·戴夫特 Matthieu Davette (id:1381816)

伊夫斯·阿尔克 Yves Alca?s (id:1381817)

玛格丽特·梅内格 Margaret Ménégoz (id:1292841)

弗朗索瓦丝·埃切加雷 Fran?oise Etchegaray (id:1283318)

雪美莲 Mary Stephen (id:1328982)

◎标 签 法国 / 侯麦 / 法国电影 / 爱情 / 埃里克·侯麦 / 秋天的故事 / 文艺 / EricRohmer

◎简 介

侯麦《人间四季》的最后一部。马嘉利(碧翠丝·罗曼德 Béatrice Romand 饰)是一名大龄剩女,有一个儿子和一片葡萄园,过着自给自足的生活。伊莎贝拉(玛丽·瑞莱 Marie Rivière 饰)一直担心着马嘉利的终身大事,她不愿她的密友在孤独中度过晚年。伊莎贝拉以马嘉利的名义偷偷在报纸上登了交友广告,没想到来者热拉尔(阿兰·利博 Alain Libolt 饰)正是自己中意的类型,一个善意的举动使得两个好友落到了尴尬的境地。

罗欣(Alexia Portal 饰)是马嘉利儿子的女友,但她真正喜欢的,却是和年长的马嘉利呆在一起。罗欣也想在马嘉利的爱情道路上出一份力,但她所做的,居然是将自己的前男友,一名年长的哲学教授介绍给马嘉利,但哲学教授显然仍对罗欣恋恋不忘。马嘉利孑然一身的生命里突然闯进了两个男人,秋天就快要结束了,但这一团剪不断理还乱的关系...

◎获奖情况 (共2项)

第55届威尼斯电影节 (1998)

主竞赛单元 金狮奖 (提名)

└──埃里克·侯麦 (id:1054406)

金奥赛拉奖 最佳编剧

└──埃里克·侯麦 (id:1054406)

  1. ##### MediaInfo ######

  2. General

  3. Unique ID : 123794011081535917741346950103237927976 (0x5D21DBFA48952D2BBDE3C3B770DC2428)

  4. Complete name : Autumn.Tale.1998.1080p.FriDay.WEB-DL.H264.AAC-10001@BBQDDQ.COM.mkv

  5. Format : Matroska

  6. Format version : Version 4

  7. File size : 3.05 GiB

  8. Duration : 1 h 51 min

  9. Overall bit rate : 3 915 kb/s

  10. Encoded date : UTC 2021-08-11 05:19:08

  11. Writing application : mkvmerge v56.1.0 ('My Friend') 64-bit

  12. Writing library : libebml v1.4.2 + libmatroska v1.6.4


  13. Video

  14. ID : 1

  15. Format : AVC

  16. Format/Info : Advanced Video Codec

  17. Format profile : High@L4.1

  18. Format settings : CABAC / 1 Ref Frames

  19. Format settings, CABAC : Yes

  20. Format settings, Reference frames : 1 frame

  21. Format settings, GOP : M=1, N=60

  22. Codec ID : V_MPEG4/ISO/AVC

  23. Duration : 1 h 51 min

  24. Bit rate mode : Constant

  25. Bit rate : 3 787 kb/s

  26. Nominal bit rate : 4 000 kb/s

  27. Width : 1 920 pixels

  28. Height : 1 080 pixels

  29. Display aspect ratio : 16:9

  30. Frame rate mode : Constant

  31. Frame rate : 29.970 (30000/1001/53354) FPS

  32. Color space : YUV

  33. Chroma subsampling : 4:2:0

  34. Bit depth : 8 bits

  35. Scan type : Progressive

  36. Bits/(Pixel*Frame) : 0.061

  37. Stream size : 2.95 GiB (97%)

  38. Language : English

  39. Default : Yes

  40. Forced : No


  41. Audio

  42. ID : 2

  43. Format : AAC LC

  44. Format/Info : Advanced Audio Codec Low Complexity

  45. Codec ID : A_AAC-2

  46. Duration : 1 h 51 min

  47. Bit rate : 125 kb/s

  48. Channel(s) : 2 channels

  49. Channel layout : L R

  50. Sampling rate : 48.0 kHz

  51. Frame rate : 46.875 FPS (1024 SPF)

  52. Compression mode : Lossy

  53. Stream size : 100 MiB (3%)

  54. Language : French

  55. Default : Yes

  56. Forced : No


  57. Text #1

  58. ID : 3

  59. Format : UTF-8

  60. Codec ID : S_TEXT/UTF8

  61. Codec ID/Info : UTF-8 Plain Text

  62. Duration : 1 h 48 min

  63. Bit rate : 51 b/s

  64. Count of elements : 1733

  65. Stream size : 41.4 KiB (0%)

  66. Title : Chinese Simplified

  67. Language : Chinese

  68. Default : Yes

  69. Forced : No


  70. Text #2

  71. ID : 4

  72. Format : UTF-8

  73. Codec ID : S_TEXT/UTF8

  74. Codec ID/Info : UTF-8 Plain Text

  75. Duration : 1 h 48 min

  76. Bit rate : 51 b/s

  77. Count of elements : 1733

  78. Stream size : 41.4 KiB (0%)

  79. Title : Chinese Traditional

  80. Language : Chinese

  81. Default : No

  82. Forced : No




文件下载


除非特别注明,本文『秋天的故事[简繁字幕].Autumn.Tale.1998.1080p.FriDay.WEB-DL.H264.AAC 3.05GB』来源于互联网机器人自动抓取,非本站原创。 浮游电影网不对本文拥有版权,如有侵犯,请联系邮箱:fuyouu#yandex.com[#换成@]投诉。我们会在15个工作日内删除。 但烦请转载时请标明出处:“本文转载于『浮游电影网』,原文地址:https://www.fuyouu.com/13584.html

评论吧骚年!

发表你的见解   

昵称*

E-mail*(建议输入,以便收到博主回复的提示邮件)

验证码*

您可以使用eMule或eMule Mod(Windows)、aMule(Win、Linux、Mac)等软件下载eD2k链接。。
eMule收藏集(.emulecollection)文件是您选中的所有链接的列表文件。eMule可以直接下载它们。
按住SHIFT键选择可以选中多个选择框。
可用文件名和大小选择器来选择文件。
文件名选择器帮您根据文件名称或后缀来选择文件。不分大小写。
符号使用:
和:空格( )、+
不包含:-
或:|
转义:一对英文引号("");
匹配开头:^
匹配结尾:$
例如:
选中所有名称中包含有“eMule”或“0.49c”字眼,但不包含有“exe”字眼的:emule|0.49c -exe
选中所有名称的开头是“eMule”,结尾是“0.49c”的:^emule 0.49c$
选中所有名称中带有“eMule 0.49c”的(必须是“eMule 0.49c”,中间没有别的字符,不能是“eMule fake 0.49c”),需要转义:"emule 0.49c"
大小选择器帮您根据文件大小选择文件。