当前位置: 首页 >> 欧美电影 >> 吉它武士[中文字幕].Six.String.Samurai.1998.2160p.HDR.UHD.BluRay.DTS.x265-10bit 12.58GB >> 正文

吉它武士[中文字幕].Six.String.Samurai.1998.2160p.HDR.UHD.BluRay.DTS.x265-10bit 12.58GB

2021年08月13日 21:03:16     电影发布:来源于网络     电影分类:欧美电影     评论(0)    

吉它武士[中文字幕].Six.String.Samurai.1998.2160p.HDR.UHD.BluRay.DTS.x265 10bit 12.58GB 冒险片 动作片 喜剧片 欧美电影  第1张

◎译 名 吉它武士 / 六弦琴武士

◎片 名 Six-String Samurai

◎年 代 1998

◎产 地 美国

◎类 别 喜剧 / 动作 / 冒险

◎语 言 英语

◎上映日期 1998-09-18(美国)

◎IMDb链接 https://www.imdb.com/title/tt0118736/

◎豆瓣评分 7.0/10 (184人评价)

◎豆瓣链接 https://movie.douban.com/subject/1293534/

◎片 长 91分钟

◎导 演 兰斯·蒙希亚 Lance Mungia (id:1292708)

◎编 剧 杰弗里·福尔肯 Jeffrey Falcon (id:1014469)

兰斯·蒙希亚 Lance Mungia (id:1292708)

◎演 员 杰弗里·福尔肯 Jeffrey Falcon (id:1014469)

兰斯·蒙希亚 Lance Mungia (id:1292708)

兰斯·蒙希亚 Lance Mungia (id:1292708)

布莱恩·泰勒 Brian Tyler (id:1276412)

◎标 签 美国 / CULT / 荒诞 / 摇滚 / 公路 / Cult / 美国电影 / 公路片

◎简 介

In the post-apocalyptic world of 1960s Nevada, a rock 'n' roll samurai on his way to Lost Vegas takes a young orphan boy under his protection as Death and his metalhead Horsemen chase after them.

  1. ##### MediaInfo ######

  2. General

  3. Unique ID : 335648570949503995513557085951618103095 (0xFC8390383EEF15BA22E50C4D45D2B737)

  4. Complete name : Six.String.Samurai.1998.2160p.HDR.UHD.BluRay.DTS.x265-10bit-10007@BBQDDQ.COM.mkv

  5. Format : Matroska

  6. Format version : Version 4

  7. File size : 12.6 GiB

  8. Duration : 1 h 30 min

  9. Overall bit rate mode : Variable

  10. Overall bit rate : 19.8 Mb/s

  11. Movie name : Six String Samurai 1998 2160p HDR UHD BluRay DTS x265-10bit-10007@BBQDDQ.COM

  12. Encoded date : UTC 2021-08-10 13:00:24

  13. Writing application : mkvmerge v38.0.0 ('The Silent Type') 64-bit

  14. Writing library : libebml v1.3.9 + libmatroska v1.5.2


  15. Video

  16. ID : 1

  17. Format : HEVC

  18. Format/Info : High Efficiency Video Coding

  19. Format profile : Main 10@L5.1@High

  20. HDR format : SMPTE ST 2086, HDR10 compatible

  21. Codec ID : V_MPEGH/ISO/HEVC

  22. Duration : 1 h 30 min

  23. Bit rate : 15.5 Mb/s

  24. Width : 3 840 pixels

  25. Height : 2 072 pixels

  26. Display aspect ratio : 1.85:1

  27. Frame rate mode : Constant

  28. Frame rate : 23.976 (24000/1001/53354) FPS

  29. Color space : YUV

  30. Chroma subsampling : 4:2:0

  31. Bit depth : 10 bits

  32. Bits/(Pixel*Frame) : 0.081

  33. Stream size : 9.84 GiB (78%)

  34. Title : @HDSky

  35. Writing library : x265 - H.265/HEVC codec

  36. Default : Yes

  37. Forced : No

  38. Color range : Limited

  39. Color primaries : BT.2020

  40. Transfer characteristics : PQ

  41. Matrix coefficients : BT.2020 non-constant

  42. Mastering display color primaries : Display P3

  43. Mastering display luminance : min: 0.0020 cd/m2, max: 1000 cd/m2

  44. Maximum Content Light Level : 739 cd/m2

  45. Maximum Frame-Average Light Level : 331 cd/m2


  46. Audio

  47. ID : 2

  48. Format : DTS XLL

  49. Format/Info : Digital Theater Systems

  50. Commercial name : DTS-HD Master Audio

  51. Codec ID : A_DTS

  52. Duration : 1 h 30 min

  53. Bit rate mode : Variable

  54. Bit rate : 4 306 kb/s

  55. Channel(s) : 6 channels

  56. Channel layout : C L R Ls Rs LFE

  57. Sampling rate : 48.0 kHz

  58. Frame rate : 93.750 FPS (512 SPF)

  59. Bit depth : 24 bits

  60. Compression mode : Lossless

  61. Stream size : 2.73 GiB (22%)

  62. Title : English

  63. Language : English

  64. Default : Yes

  65. Forced : No


  66. Text #1

  67. ID : 3

  68. Format : PGS

  69. Muxing mode : zlib

  70. Codec ID : S_HDMV/PGS

  71. Codec ID/Info : Picture based subtitle format used on BDs/HD-DVDs

  72. Duration : 1 h 30 min

  73. Bit rate : 12.0 kb/s

  74. Count of elements : 1332

  75. Stream size : 7.76 MiB (0%)

  76. Title : ENG

  77. Language : English

  78. Default : Yes

  79. Forced : No


  80. Text #2

  81. ID : 4

  82. Format : PGS

  83. Muxing mode : zlib

  84. Codec ID : S_HDMV/PGS

  85. Codec ID/Info : Picture based subtitle format used on BDs/HD-DVDs

  86. Duration : 1 h 24 min

  87. Bit rate : 11.3 kb/s

  88. Count of elements : 713

  89. Stream size : 6.85 MiB (0%)

  90. Title : CHS

  91. Language : Chinese

  92. Default : No

  93. Forced : No


  94. Text #3

  95. ID : 5

  96. Format : PGS

  97. Muxing mode : zlib

  98. Codec ID : S_HDMV/PGS

  99. Codec ID/Info : Picture based subtitle format used on BDs/HD-DVDs

  100. Duration : 1 h 24 min

  101. Bit rate : 11.4 kb/s

  102. Count of elements : 713

  103. Stream size : 6.93 MiB (0%)

  104. Title : CHT

  105. Language : Chinese

  106. Default : No

  107. Forced : No


  108. Menu

  109. 00:00:00.000 : en:Chapter 01

  110. 00:17:03.105 : en:Chapter 02

  111. 00:38:03.280 : en:Chapter 03

  112. 00:57:57.514 : en:Chapter 04

  113. 01:13:14.931 : en:Chapter 05



文件下载


除非特别注明,本文『吉它武士[中文字幕].Six.String.Samurai.1998.2160p.HDR.UHD.BluRay.DTS.x265-10bit 12.58GB』来源于互联网机器人自动抓取,非本站原创。 浮游电影网不对本文拥有版权,如有侵犯,请联系邮箱:fuyouu#yandex.com[#换成@]投诉。我们会在15个工作日内删除。 但烦请转载时请标明出处:“本文转载于『浮游电影网』,原文地址:https://www.fuyouu.com/13575.html

评论吧骚年!

发表你的见解   

昵称*

E-mail*(建议输入,以便收到博主回复的提示邮件)

验证码*

您可以使用eMule或eMule Mod(Windows)、aMule(Win、Linux、Mac)等软件下载eD2k链接。。
eMule收藏集(.emulecollection)文件是您选中的所有链接的列表文件。eMule可以直接下载它们。
按住SHIFT键选择可以选中多个选择框。
可用文件名和大小选择器来选择文件。
文件名选择器帮您根据文件名称或后缀来选择文件。不分大小写。
符号使用:
和:空格( )、+
不包含:-
或:|
转义:一对英文引号("");
匹配开头:^
匹配结尾:$
例如:
选中所有名称中包含有“eMule”或“0.49c”字眼,但不包含有“exe”字眼的:emule|0.49c -exe
选中所有名称的开头是“eMule”,结尾是“0.49c”的:^emule 0.49c$
选中所有名称中带有“eMule 0.49c”的(必须是“eMule 0.49c”,中间没有别的字符,不能是“eMule fake 0.49c”),需要转义:"emule 0.49c"
大小选择器帮您根据文件大小选择文件。