当前位置: 首页 >> 欧美电影 >> 明星助理[国粤语音轨/中文字幕].Missing.2008.1080p.BluRay.DTS.2Audio.x265-10bit 12.76GB >> 正文

明星助理[国粤语音轨/中文字幕].Missing.2008.1080p.BluRay.DTS.2Audio.x265-10bit 12.76GB

2021年08月12日 14:05:31     电影发布:来源于网络     电影分类:欧美电影     评论(0)    

明星助理[国粤语音轨/中文字幕].Missing.2008.1080p.BluRay.DTS.2Audio.x265 10bit 12.76GB 爱情片 喜剧片 欧美电影  第1张

◎译 名 明星助理 / 明星管家 / 巴姐搞转娱乐圈 / B咖妙管家

◎片 名 Miss Pettigrew Lives for a Day

◎年 代 2008

◎产 地 英国 / 美国

◎类 别 喜剧 / 爱情

◎语 言 英语

◎上映日期 2008-03-07(美国)

◎IMDb链接 https://www.imdb.com/title/tt0970468/

◎豆瓣评分 7.4/10 (24783人评价)

◎豆瓣链接 https://movie.douban.com/subject/2134294/

◎片 长 92 分钟

◎导 演 贝瑞特·奈鲁利 Bharat Nalluri (id:1292903)

◎编 剧 大卫·麦基 David Magee (id:1305980)

西蒙·博福伊 Simon Beaufoy (id:1276098)

Winifred Watson Winifred Watson (id:1029769)

◎演 员 弗兰西斯·麦克多蒙德 Frances McDormand (id:1010548)

艾米·亚当斯 Amy Adams (id:1022563)

David Alexander David Alexander (id:1331427)

克莱尔·克利福德 Clare Clifford (id:1331428)

克里斯蒂娜·科尔 Christina Cole (id:1220340)

斯蒂芬妮·科尔 Stephanie Cole (id:1071265)

比蒂·埃德尼 Beatie Edney (id:1079595)

雪莉·亨德森 Shirley Henderson (id:1036426)

塞伦·希德 Ciarán Hinds (id:1004586)

凯蒂墨菲 Katy Murphy (id:1292762)

李·佩斯 Lee Pace (id:1018975)

汤姆·佩恩 Tom Payne (id:1036764)

马特·瑞安 Matt Ryan (id:1329999)

马克·斯特朗 Mark Strong (id:1274374)

保罗·韦伯斯特 Paul Webster (id:1050494)

内莉·贝尔弗劳尔 Nellie Bellflower (id:1045517)

John de Borman John de Borman (id:1281984)

巴尼·皮林 Barney Pilling (id:1305648)

利奥·戴维斯 Leo Davis (id:1281921)

莎拉·格林伍德 Sarah Greenwood (id:1285412)

凯蒂·斯宾塞 Katie Spencer (id:1298142)

尼尔·莫罗尼 Niall Moroney (id:1292529)

尼克·戈特沙尔克 Nick Gottschalk (id:1301976)

迈克尔·奥康纳 Michael O'Connor (id:1135533)

菲·哈蒙德 Fae Hammond (id:1285927)

Sue Westwood Sue Westwood (id:1304669)

皮特·汉森 Pete Hanson (id:1102387)

Gurel Mehmet Gurel Mehmet (id:1307948)

Jaume Arteman Jaume Arteman (id:1194297)

梅利莎·泰勒 Melissa Taylor (id:1299007)

◎标 签 喜剧 / 英国 / 爱情 / 英国电影 / 2008 / 明星助理 / AmyAdams / 电影

◎简 介

1939年,伦敦。这是Pettigrew(弗兰西斯·麦克多蒙德 Frances McDormand 饰)悲惨的一天,起码开始看起来是。身为牧师女儿的她,遵守着严厉和刻板的自我约束,同时也把这些约束和教诲放到她所带的小孩身上。没错,Pettigrew是伦敦的家庭教室,然而她的严厉管教让家长非常不满,一个月内她就被炒了三次。这次家教中心的Holt女士也将她扫地出门。一身灰色老土打扮穷困潦倒的她急中生智拿起了给Delysia Lafosse(艾米·亚当斯 Amy Adams 饰)小姐的职业推荐信,找上门去。

Delysia是一个等待大放异彩的歌影双栖明星,为了争取机会,她同时和三个男人周旋,而只有其中一个是她真心所爱。在接下来的24小时,Pettigrew将帮助Delysia度过种种惊险又富喜剧色彩的危机,并且认清楚真正的幸福是什么,而Pettigrew也...

  1. ##### MediaInfo ######

  2. General

  3. Unique ID : 125806057097891032575670994790092382721 (0x5EA55D815A3AADF231BE0C0D2E342201)

  4. Complete name : Missing.2008.1080p.BluRay.DTS.2Audio.x265-10bit-10007@BBQDDQ.COM.mkv

  5. Format : Matroska

  6. Format version : Version 4

  7. File size : 12.8 GiB

  8. Duration : 1 h 57 min

  9. Overall bit rate : 15.6 Mb/s

  10. Movie name : Missing 2008 1080p BluRay DTS 2Audio x265-10bit-10007@BBQDDQ.COM

  11. Encoded date : UTC 2021-08-11 00:50:38

  12. Writing application : mkvmerge v38.0.0 ('The Silent Type') 64-bit

  13. Writing library : libebml v1.3.9 + libmatroska v1.5.2


  14. Video

  15. ID : 1

  16. Format : HEVC

  17. Format/Info : High Efficiency Video Coding

  18. Format profile : Main 10@L5.1@High

  19. Codec ID : V_MPEGH/ISO/HEVC

  20. Duration : 1 h 57 min

  21. Bit rate : 13.4 Mb/s

  22. Width : 1 920 pixels

  23. Height : 1 080 pixels

  24. Display aspect ratio : 16:9

  25. Frame rate mode : Constant

  26. Frame rate : 24.000 FPS

  27. Color space : YUV

  28. Chroma subsampling : 4:2:0

  29. Bit depth : 10 bits

  30. Bits/(Pixel*Frame) : 0.270

  31. Stream size : 11.0 GiB (86%)

  32. Title : veryzayin@HDSky

  33. Writing library : x265 - H.265/HEVC codec

  34. Default : Yes

  35. Forced : No


  36. Audio #1

  37. ID : 2

  38. Format : DTS

  39. Format/Info : Digital Theater Systems

  40. Codec ID : A_DTS

  41. Duration : 1 h 57 min

  42. Bit rate mode : Constant

  43. Bit rate : 1 509 kb/s

  44. Channel(s) : 6 channels

  45. Channel layout : C L R Ls Rs LFE

  46. Sampling rate : 48.0 kHz

  47. Frame rate : 93.750 FPS (512 SPF)

  48. Bit depth : 24 bits

  49. Compression mode : Lossy

  50. Stream size : 1.23 GiB (10%)

  51. Title : Cantonese

  52. Language : Chinese

  53. Default : Yes

  54. Forced : No


  55. Audio #2

  56. ID : 3

  57. Format : AC-3

  58. Format/Info : Audio Coding 3

  59. Commercial name : Dolby Digital

  60. Codec ID : A_AC3

  61. Duration : 1 h 57 min

  62. Bit rate mode : Constant

  63. Bit rate : 640 kb/s

  64. Channel(s) : 6 channels

  65. Channel layout : L R C LFE Ls Rs

  66. Sampling rate : 48.0 kHz

  67. Frame rate : 31.250 FPS (1536 SPF)

  68. Compression mode : Lossy

  69. Stream size : 536 MiB (4%)

  70. Title : Mandarin

  71. Language : Chinese

  72. Service kind : Complete Main

  73. Default : No

  74. Forced : No


  75. Text

  76. ID : 4

  77. Format : PGS

  78. Muxing mode : zlib

  79. Codec ID : S_HDMV/PGS

  80. Codec ID/Info : Picture based subtitle format used on BDs/HD-DVDs

  81. Duration : 1 h 50 min

  82. Bit rate : 28.1 kb/s

  83. Count of elements : 1777

  84. Stream size : 22.2 MiB (0%)

  85. Title : CHS

  86. Language : Chinese

  87. Default : Yes

  88. Forced : No


  89. Menu

  90. 00:00:00.000 : en:Chapter 01

  91. 00:07:01.250 : en:Chapter 02

  92. 00:11:19.416 : en:Chapter 03

  93. 00:17:11.000 : en:Chapter 04

  94. 00:21:28.290 : en:Chapter 05

  95. 00:27:05.040 : en:Chapter 06

  96. 00:31:36.665 : en:Chapter 07

  97. 00:37:03.791 : en:Chapter 08

  98. 00:42:05.583 : en:Chapter 09

  99. 00:46:00.041 : en:Chapter 10

  100. 00:54:04.000 : en:Chapter 11

  101. 01:05:26.375 : en:Chapter 12

  102. 01:13:11.291 : en:Chapter 13

  103. 01:20:37.041 : en:Chapter 14

  104. 01:31:35.875 : en:Chapter 15

  105. 01:37:54.041 : en:Chapter 16

  106. 01:44:27.000 : en:Chapter 17

  107. 01:47:27.916 : en:Chapter 18


文件下载


除非特别注明,本文『明星助理[国粤语音轨/中文字幕].Missing.2008.1080p.BluRay.DTS.2Audio.x265-10bit 12.76GB』来源于互联网机器人自动抓取,非本站原创。 浮游电影网不对本文拥有版权,如有侵犯,请联系邮箱:fuyouu#yandex.com[#换成@]投诉。我们会在15个工作日内删除。 但烦请转载时请标明出处:“本文转载于『浮游电影网』,原文地址:https://www.fuyouu.com/13565.html

评论吧骚年!

发表你的见解   

昵称*

E-mail*(建议输入,以便收到博主回复的提示邮件)

验证码*

您可以使用eMule或eMule Mod(Windows)、aMule(Win、Linux、Mac)等软件下载eD2k链接。。
eMule收藏集(.emulecollection)文件是您选中的所有链接的列表文件。eMule可以直接下载它们。
按住SHIFT键选择可以选中多个选择框。
可用文件名和大小选择器来选择文件。
文件名选择器帮您根据文件名称或后缀来选择文件。不分大小写。
符号使用:
和:空格( )、+
不包含:-
或:|
转义:一对英文引号("");
匹配开头:^
匹配结尾:$
例如:
选中所有名称中包含有“eMule”或“0.49c”字眼,但不包含有“exe”字眼的:emule|0.49c -exe
选中所有名称的开头是“eMule”,结尾是“0.49c”的:^emule 0.49c$
选中所有名称中带有“eMule 0.49c”的(必须是“eMule 0.49c”,中间没有别的字符,不能是“eMule fake 0.49c”),需要转义:"emule 0.49c"
大小选择器帮您根据文件大小选择文件。