当前位置: 首页 >> 国产电影 >> 洗澡.Shower.1999.WEB-DL.4K.H265.AAC 11.12GB >> 正文

洗澡.Shower.1999.WEB-DL.4K.H265.AAC 11.12GB

2021年08月11日 13:35:14     电影发布:来源于网络     电影分类:国产电影     评论(0)    

洗澡.Shower.1999.WEB DL.4K.H265.AAC 11.12GB 家庭片 喜剧片 剧情片 国产电影  第1张

◎译 名 洗澡 / Shower

◎年 代 1999

◎产 地 中国大陆

◎类 别 剧情 / 喜剧 / 家庭

◎语 言 汉语普通话

◎上映日期 1999-09-14(多伦多电影节)

◎IMDb链接 https://www.imdb.com/title/tt0215369/

◎豆瓣评分 8.4/10 (57509人评价)

◎豆瓣链接 https://movie.douban.com/subject/1303485/

◎片 长 92分钟

◎导 演 张杨 Yang Zhang (id:1301697)

◎编 剧 张杨 Yang Zhang (id:1301697)

刘奋斗 Fendou Liu (id:1275174)

霍昕 Xin Huo (id:1287182)

刁亦男 Yi'nan Diao (id:1276173)

蔡尚君 Shangjun Cai (id:1315693)

◎演 员 姜武 Wu Jiang (id:1274290)

濮存昕 Cunxin Pu (id:1274855)

朱旭 Xu Zhu (id:1275118)

李丁 Ding Li (id:1274854)

封顺 Shun Feng (id:1344505)

何冰 Bing He (id:1274825)

隋永清 Yongqing Sui (id:1388971)

金钊 Zhao Jin (id:1374585)

杨子纯 Zichun Yang (id:1345557)

方征 Zheng Fang (id:1370871)

刘希媛 Xiyuan Liu (id:1275312)

杜家毅 Jiayi Du (id:1275274)

皮特·洛尔 Peter Loehr (id:1367316)

山姆·段 Sam Duann (id:1398247)

叶小钢 Xiaogang Ye (id:1301448)

张健 Jian Zhang (id:1301694)

杨红雨 Hongyu Yang (id:1301417)

田蒙 Meng Tian (id:1341754)

杨江 Jiang Yang (id:1351381)

来启箴 Qizhen Lai (id:1289264)

◎标 签 中国电影 / 张扬 / 姜武 / 大陆 / 剧情 / 中国 / 洗澡 / 国产

◎简 介

早年丧偶育有两子的老刘(朱旭)苦心经营了一辈子澡堂子,是京城搓澡行业的一把手。长子大明(濮存昕)离家南下多年没归,身边只有傻二儿子二明(姜武),加上澡堂子生意日益冷清,老刘生出无限凄凉,好在,他还有一帮离不开澡堂子的老伙计相陪。

某日,大明突然归来,令老刘错愕不已,原来他是收到二明寄发的明信片误以为父亲病逝才匆忙赶回。而面对安然无恙但已到迟暮之年的父亲、什么也不懂的傻弟弟和破败的澡堂子,大明毫无久留之心,只想速速返程。就在大明动身时刻,老刘突然犯病,不得已,大明放下行李开始照顾父亲、弟弟和澡堂子,自此,他开始试着去了解父亲,并渐渐生出感动。

◎获奖情况 (共5项)

第21届香港电影金像奖 (2002)

最佳亚洲电影(提名)

第20届中国电影金鸡奖 (2000)

最佳男主角(提名)

└──朱旭 (id:1275118)

第7届北京大学生电影节 (2000)

最佳男演员奖

└──姜武 (id:1274290)

最受大学生欢迎影片

最受大学生欢迎男演员

└──濮存昕 (id:1274855)

  1. ##### MediaInfo ######

  2. General

  3. Complete name : Shower.1999.WEB-DL.4K.H265.AAC-10015@BBQDDQ.COM.mp4

  4. Format : MPEG-4

  5. Format profile : Base Media

  6. Codec ID : isom (isom/iso2/mp41)

  7. File size : 11.1 GiB

  8. Duration : 1 h 34 min

  9. Overall bit rate : 16.9 Mb/s

  10. Writing application : Lavf58.30.100


  11. Video

  12. ID : 1

  13. Format : HEVC

  14. Format/Info : High Efficiency Video Coding

  15. Format profile : Main@L5@High

  16. Codec ID : hev1

  17. Codec ID/Info : High Efficiency Video Coding

  18. Duration : 1 h 34 min

  19. Bit rate : 16.7 Mb/s

  20. Width : 3 840 pixels

  21. Height : 2 160 pixels

  22. Display aspect ratio : 16:9

  23. Frame rate mode : Constant

  24. Frame rate : 24.000 FPS

  25. Color space : YUV

  26. Chroma subsampling : 4:2:0

  27. Bit depth : 8 bits

  28. Bits/(Pixel*Frame) : 0.084

  29. Stream size : 11.0 GiB (99%)

  30. Codec configuration box : hvcC


  31. Audio

  32. ID : 2

  33. Format : AAC LC

  34. Format/Info : Advanced Audio Codec Low Complexity

  35. Codec ID : mp4a-40-2

  36. Duration : 1 h 34 min

  37. Bit rate mode : Constant

  38. Bit rate : 192 kb/s

  39. Channel(s) : 2 channels

  40. Channel layout : L R

  41. Sampling rate : 44.1 kHz

  42. Frame rate : 43.066 FPS (1024 SPF)

  43. Compression mode : Lossy

  44. Stream size : 128 MiB (1%)

  45. Default : Yes

  46. Alternate group : 1



文件下载


除非特别注明,本文『洗澡.Shower.1999.WEB-DL.4K.H265.AAC 11.12GB』来源于互联网机器人自动抓取,非本站原创。 浮游电影网不对本文拥有版权,如有侵犯,请联系邮箱:fuyouu#yandex.com[#换成@]投诉。我们会在15个工作日内删除。 但烦请转载时请标明出处:“本文转载于『浮游电影网』,原文地址:https://www.fuyouu.com/13544.html

评论吧骚年!

发表你的见解   

昵称*

E-mail*(建议输入,以便收到博主回复的提示邮件)

验证码*

您可以使用eMule或eMule Mod(Windows)、aMule(Win、Linux、Mac)等软件下载eD2k链接。。
eMule收藏集(.emulecollection)文件是您选中的所有链接的列表文件。eMule可以直接下载它们。
按住SHIFT键选择可以选中多个选择框。
可用文件名和大小选择器来选择文件。
文件名选择器帮您根据文件名称或后缀来选择文件。不分大小写。
符号使用:
和:空格( )、+
不包含:-
或:|
转义:一对英文引号("");
匹配开头:^
匹配结尾:$
例如:
选中所有名称中包含有“eMule”或“0.49c”字眼,但不包含有“exe”字眼的:emule|0.49c -exe
选中所有名称的开头是“eMule”,结尾是“0.49c”的:^emule 0.49c$
选中所有名称中带有“eMule 0.49c”的(必须是“eMule 0.49c”,中间没有别的字符,不能是“eMule fake 0.49c”),需要转义:"emule 0.49c"
大小选择器帮您根据文件大小选择文件。