当前位置: 首页 >> 国产电影 >> 破局.Caught.in.trap.2014.WEB-DL.1080p.H265.AAC 2.98GB >> 正文

破局.Caught.in.trap.2014.WEB-DL.1080p.H265.AAC 2.98GB

2021年08月11日 13:33:53     电影发布:来源于网络     电影分类:国产电影     评论(0)    

破局.Caught.in.trap.2014.WEB DL.1080p.H265.AAC 2.98GB 犯罪片 悬疑片 爱情片 剧情片 国产电影  第1张

◎译 名 破局 / Caught in trap

◎年 代 2014

◎产 地 中国大陆

◎类 别 剧情 / 爱情 / 悬疑 / 犯罪

◎语 言 汉语普通话

◎上映日期 2014-07-11(中国大陆)

◎IMDb链接 https://www.imdb.com/title/tt4041844/

◎豆瓣评分 5.2/10 (1525人评价)

◎豆瓣链接 https://movie.douban.com/subject/25746423/

◎片 长 98分钟

◎导 演 李作楠 Tso Nam Lee (id:1001955)

◎编 剧 王敏 Min Wang (id:1340701)

周理松 Lisong Zhou (id:1340639)

周泽春 Zechun Zhou (id:1340700)

◎演 员 林保怡 Bowie Lam (id:1274606)

车晓 Xiao Che (id:1276038)

李强 Qiang Li (id:1274810)

郭威 Wei Guo (id:1340698)

贺镪 Qiang He (id:1330885)

古典 Will Gu (id:1337224)

周昕妤 Xinyu Zhou (id:1340638)

◎标 签 犯罪 / 大陆 / 剧情 / 2014 / 林保怡 / 中国电影(大陆) / 反腐 / 中国电影

◎简 介

某城中村因强行征地拆迁发生群体性械斗,村民常青因在械斗中失手打死强拆人员而被公安机关提请逮捕,村民对此十分不满,同时反映官商勾结,要求严肃查处从中非法获利的腐败官员。

市检察院侦查监督处女检察官张芸(车晓 饰)在审查常青故意伤害案中,发现报捕的材料矛盾重重,遂与负责查处城中村事件背后渎职犯罪的反渎局局长顾长风(林保怡 饰)相互配合,从犯罪嫌疑人马义成在一起人为的交通事故中死亡入手,顺藤摸瓜,陆续查出强拆公司头目杨胜强、“金玉华庭”老板金玉庭(李强 饰)等人与土地规划、房产管理等部门官员相互勾结,非法出让、倒卖土地,违规办理“两证”等犯罪事实。为逃避法律追究,金玉庭等人对顾长风或以金钱收买,或以绑架其年幼的女儿相威胁,顾毫不退缩,并得到对他爱慕已久的张芸的无私帮助。

最终,常青“故意伤害致死人命”案因张芸的严格把关,最终被认定为正当防卫,常被无罪释放,...

  1. ##### MediaInfo ######

  2. General

  3. Complete name : Caught.in.trap.2014.WEB-DL.1080p.H265.AAC-10015@BBQDDQ.COM.mp4

  4. Format : MPEG-4

  5. Format profile : Base Media

  6. Codec ID : isom (isom/iso2/mp41)

  7. File size : 2.98 GiB

  8. Duration : 1 h 32 min

  9. Overall bit rate : 4 601 kb/s

  10. Writing application : Lavf58.30.100


  11. Video

  12. ID : 1

  13. Format : HEVC

  14. Format/Info : High Efficiency Video Coding

  15. Format profile : Main@L4@High

  16. Codec ID : hev1

  17. Codec ID/Info : High Efficiency Video Coding

  18. Duration : 1 h 32 min

  19. Bit rate : 4 470 kb/s

  20. Width : 1 920 pixels

  21. Height : 816 pixels

  22. Display aspect ratio : 2.35:1

  23. Frame rate mode : Constant

  24. Frame rate : 24.000 FPS

  25. Color space : YUV

  26. Chroma subsampling : 4:2:0

  27. Bit depth : 8 bits

  28. Bits/(Pixel*Frame) : 0.119

  29. Stream size : 2.90 GiB (97%)

  30. Codec configuration box : hvcC


  31. Audio

  32. ID : 2

  33. Format : AAC LC

  34. Format/Info : Advanced Audio Codec Low Complexity

  35. Codec ID : mp4a-40-2

  36. Duration : 1 h 32 min

  37. Bit rate mode : Constant

  38. Bit rate : 124 kb/s

  39. Channel(s) : 2 channels

  40. Channel layout : L R

  41. Sampling rate : 44.1 kHz

  42. Frame rate : 43.066 FPS (1024 SPF)

  43. Compression mode : Lossy

  44. Stream size : 82.5 MiB (3%)

  45. Default : Yes

  46. Alternate group : 1



文件下载


除非特别注明,本文『破局.Caught.in.trap.2014.WEB-DL.1080p.H265.AAC 2.98GB』来源于互联网机器人自动抓取,非本站原创。 浮游电影网不对本文拥有版权,如有侵犯,请联系邮箱:fuyouu#yandex.com[#换成@]投诉。我们会在15个工作日内删除。 但烦请转载时请标明出处:“本文转载于『浮游电影网』,原文地址:https://www.fuyouu.com/13543.html

评论吧骚年!

发表你的见解   

昵称*

E-mail*(建议输入,以便收到博主回复的提示邮件)

验证码*

您可以使用eMule或eMule Mod(Windows)、aMule(Win、Linux、Mac)等软件下载eD2k链接。。
eMule收藏集(.emulecollection)文件是您选中的所有链接的列表文件。eMule可以直接下载它们。
按住SHIFT键选择可以选中多个选择框。
可用文件名和大小选择器来选择文件。
文件名选择器帮您根据文件名称或后缀来选择文件。不分大小写。
符号使用:
和:空格( )、+
不包含:-
或:|
转义:一对英文引号("");
匹配开头:^
匹配结尾:$
例如:
选中所有名称中包含有“eMule”或“0.49c”字眼,但不包含有“exe”字眼的:emule|0.49c -exe
选中所有名称的开头是“eMule”,结尾是“0.49c”的:^emule 0.49c$
选中所有名称中带有“eMule 0.49c”的(必须是“eMule 0.49c”,中间没有别的字符,不能是“eMule fake 0.49c”),需要转义:"emule 0.49c"
大小选择器帮您根据文件大小选择文件。