当前位置: 首页 >> 国产电影 >> 赛车传奇.Racer.Legend.2011.WEB-DL.4K.H265.AAC 2.04GB >> 正文

赛车传奇.Racer.Legend.2011.WEB-DL.4K.H265.AAC 2.04GB

2021年08月11日 13:32:36     电影发布:来源于网络     电影分类:国产电影     评论(0)    

赛车传奇.Racer.Legend.2011.WEB DL.4K.H265.AAC 2.04GB 爱情片 动作片 剧情片 国产电影  第1张

◎译 名 赛车传奇 / 热血传奇 / Racer Legend

◎年 代 2011

◎产 地 中国大陆 / 中国香港

◎类 别 剧情 / 动作 / 爱情

◎语 言 汉语普通话

◎上映日期 2011-12-02(中国大陆)

◎IMDb链接 https://www.imdb.com/title/tt2473574/

◎豆瓣评分 4.3/10 (1763人评价)

◎豆瓣链接 https://movie.douban.com/subject/6396689/

◎片 长 95分钟

◎导 演 罗义民 Norman Law (id:1316462)

韩之夏 Zhixia Han (id:1326885)

◎编 剧 韩延 Yan Han (id:1314828)

韩冰 Bing Han (id:1326888)

田雨生 Yusheng Tian (id:1326889)

史晨赟 Chenbin Shi (id:1326890)

冯馨瑶 Xinyao Feng (id:1326891)

田羽生 Yusheng Tian (id:1332171)

韩之夏 Zhixia Han (id:1326885)

◎演 员 窦骁 Shawn Dou (id:1274225)

信 Shin (id:1275268)

王柏杰 Bo-Chieh Wang (id:1275038)

曾志伟 Eric Tsang (id:1002862)

张钧甯 Chun-Ning Chang (id:1257882)

张溪芸 Xiyun Zhang (id:1318308)

陆红实 Hongshi Lu (id:1399846)

黄精甫 Ching-Po Wong (id:1307166)

王宇 Yu Wang (id:1352980)

徐鸿 Xu Hong (id:1392419)

罗礼贤 Bruce Law (id:1289542)

◎标 签 窦骁 / 张钧甯 / 2011 / 苏见信 / 汽车片 / 赛车 / 中国 / 王柏杰

◎简 介

赛车手叶浩城(窦骁 饰)年少轻狂,曾在多次赛车大奖赛中勇夺冠军,至使他一时目中无人。不久,他与另一位天才车手林司哲(苏见信 饰)相遇,林属于少年老成深藏不露一类,叶浩城乍一见面,便生出莫名敌意,令人想不到的是,他莫名其妙地爱上了林的妹妺林韦彤(张钧甯 饰)。浩城的哥哥宏城早年死于一次非法赛车,恐怖的梦魇一直笼罩在浩城心头好多年,成了他无法打开的心结。为赢得比赛,浩城常常采用危险技术,为此他多次遭教练严叔(曾志伟 饰)斥责。好朋友吴嘉乐(王柏杰 饰)也因助他使用旁门左道而离开了赛车场,从此浩城变得一蹶不振。为使叶浩城重新鼓起重返赛场的信心,严叔等人费尽了心机......

  1. ##### MediaInfo ######

  2. General

  3. Complete name : Racer.Legend.2011.WEB-DL.4K.H265.AAC-10015@BBQDDQ.COM.mp4

  4. Format : MPEG-4

  5. Format profile : Base Media

  6. Codec ID : isom (isom/iso2/mp41)

  7. File size : 2.04 GiB

  8. Duration : 1 h 30 min

  9. Overall bit rate : 3 236 kb/s

  10. Writing application : Lavf58.30.100


  11. Video

  12. ID : 1

  13. Format : HEVC

  14. Format/Info : High Efficiency Video Coding

  15. Format profile : Main@L5@Main

  16. Codec ID : hev1

  17. Codec ID/Info : High Efficiency Video Coding

  18. Duration : 1 h 30 min

  19. Bit rate : 3 039 kb/s

  20. Width : 3 840 pixels

  21. Height : 1 784 pixels

  22. Display aspect ratio : 2.2:1

  23. Frame rate mode : Constant

  24. Frame rate : 25.000 FPS

  25. Color space : YUV

  26. Chroma subsampling : 4:2:0

  27. Bit depth : 8 bits

  28. Bits/(Pixel*Frame) : 0.018

  29. Stream size : 1.92 GiB (94%)

  30. Codec configuration box : hvcC


  31. Audio

  32. ID : 2

  33. Format : AAC LC

  34. Format/Info : Advanced Audio Codec Low Complexity

  35. Codec ID : mp4a-40-2

  36. Duration : 1 h 30 min

  37. Bit rate mode : Constant

  38. Bit rate : 192 kb/s

  39. Channel(s) : 2 channels

  40. Channel layout : L R

  41. Sampling rate : 44.1 kHz

  42. Frame rate : 43.066 FPS (1024 SPF)

  43. Compression mode : Lossy

  44. Stream size : 123 MiB (6%)

  45. Default : Yes

  46. Alternate group : 1



文件下载


除非特别注明,本文『赛车传奇.Racer.Legend.2011.WEB-DL.4K.H265.AAC 2.04GB』来源于互联网机器人自动抓取,非本站原创。 浮游电影网不对本文拥有版权,如有侵犯,请联系邮箱:fuyouu#yandex.com[#换成@]投诉。我们会在15个工作日内删除。 但烦请转载时请标明出处:“本文转载于『浮游电影网』,原文地址:https://www.fuyouu.com/13542.html

评论吧骚年!

发表你的见解   

昵称*

E-mail*(建议输入,以便收到博主回复的提示邮件)

验证码*

您可以使用eMule或eMule Mod(Windows)、aMule(Win、Linux、Mac)等软件下载eD2k链接。。
eMule收藏集(.emulecollection)文件是您选中的所有链接的列表文件。eMule可以直接下载它们。
按住SHIFT键选择可以选中多个选择框。
可用文件名和大小选择器来选择文件。
文件名选择器帮您根据文件名称或后缀来选择文件。不分大小写。
符号使用:
和:空格( )、+
不包含:-
或:|
转义:一对英文引号("");
匹配开头:^
匹配结尾:$
例如:
选中所有名称中包含有“eMule”或“0.49c”字眼,但不包含有“exe”字眼的:emule|0.49c -exe
选中所有名称的开头是“eMule”,结尾是“0.49c”的:^emule 0.49c$
选中所有名称中带有“eMule 0.49c”的(必须是“eMule 0.49c”,中间没有别的字符,不能是“eMule fake 0.49c”),需要转义:"emule 0.49c"
大小选择器帮您根据文件大小选择文件。