当前位置: 首页 >> 动画电影 >> 济公之降龙降世.Master.Ji.Gong.2021.2160p.WEB-DL.H265.DDP5.1 2.65GB >> 正文

济公之降龙降世.Master.Ji.Gong.2021.2160p.WEB-DL.H265.DDP5.1 2.65GB

2021年08月11日 13:29:19     电影发布:来源于网络     电影分类:动画电影     评论(0)    

济公之降龙降世.Master.Ji.Gong.2021.2160p.WEB DL.H265.DDP5.1 2.65GB 动画片 奇幻片 冒险片 动画电影  第1张

◎译 名 济公之降龙降世 / Master Ji Gong

◎年 代 2021

◎产 地 中国大陆

◎类 别 动画 / 奇幻 / 冒险

◎语 言 汉语普通话

◎上映日期 2021-07-16(中国大陆)

◎IMDb链接 https://www.imdb.com/title//

◎豆瓣评分 4.8/10 (7327人评价)

◎豆瓣链接 https://movie.douban.com/subject/35489675/

◎片 长 92分钟

◎导 演 刘志江 Zhijiang Liu (id:1420037)

乔彧 Yu Qiao (id:1329142)

◎编 剧 张挺 Ting Zhang (id:1322741)

◎演 员 朱婧 Jing Zhu (id:1450457)

白文显 Wenxian Bai (id:1349359)

李扬 Yang Li (id:1316809)

杨帆 Fan Yang (id:1348346)

泽飞 Zefei (id:1338294)

靳东 Dong Jin (id:1314123)

劳伦斯·施拉杰 Lawrence Shragge (id:1297520)

蒂姆·琼斯 Tim Jones (id:1458140)

焦杰峰 Jiefeng Jiao (id:1458137)

石超群 Chaoqun Shi (id:1420426)

◎标 签 国漫 / 动画 / 济公 / 中国大陆 / 奇幻 / 2021 / 中国 / 成长

◎简 介

赤城山脚下永宁村,为了让久病缠身的娘病愈,顽童李修缘一心想成为大英雄,却总是好心办坏事,让村庄鸡飞狗跳。在遭遇了一场场险遇后,李修缘得知自己就是大英雄降龙罗汉转世。其父李茂春受金翎蛊惑,为保护李修缘而抢夺金身,欲替儿子承担拯救世人的使命。却被金翎抢走金身献给金翅大鹏,金翅大鹏因此提前复活,欲毁灭人间。最后,李修缘父子为了大爱牺牲小爱,携手以肉身抵抗金翅大鹏,却终究以卵击石。濒死的李修缘,终于顿悟比金身更重要的是爱,最终化身降龙罗汉。经历人间疾苦后,降龙罗汉最终放弃果位。从此,天上少了一名降龙罗汉,世间多了一个云游天下,济世救人的活佛。

  1. ##### MediaInfo ######

  2. General

  3. Unique ID : 1002324047413679490946004786580660672 (0xC10A6415FC4700CBDE162F90BDA1C0)

  4. Complete name : 济公之降龙降世.Master.Ji.Gong.2021.2160p.WEB-DL.H265.DDP5.1-10003@BBQDDQ.COM.mkv

  5. Format : Matroska

  6. Format version : Version 4

  7. File size : 2.65 GiB

  8. Duration : 1 h 32 min

  9. Overall bit rate : 4 092 kb/s

  10. Encoded date : UTC 2021-08-10 11:09:46

  11. Writing application : mkvmerge v51.0.0 ('I Wish') 64-bit

  12. Writing library : libebml v1.4.0 + libmatroska v1.6.2


  13. Video

  14. ID : 1

  15. Format : HEVC

  16. Format/Info : High Efficiency Video Coding

  17. Format profile : Main@L5@Main

  18. Codec ID : V_MPEGH/ISO/HEVC

  19. Duration : 1 h 32 min

  20. Bit rate : 3 834 kb/s

  21. Width : 3 840 pixels

  22. Height : 1 608 pixels

  23. Display aspect ratio : 2.40:1

  24. Frame rate mode : Constant

  25. Frame rate : 24.000 FPS

  26. Color space : YUV

  27. Chroma subsampling : 4:2:0

  28. Bit depth : 8 bits

  29. Bits/(Pixel*Frame) : 0.026

  30. Stream size : 2.49 GiB (94%)

  31. Default : Yes

  32. Forced : No


  33. Audio

  34. ID : 2

  35. Format : E-AC-3

  36. Format/Info : Enhanced AC-3

  37. Commercial name : Dolby Digital Plus

  38. Codec ID : A_EAC3

  39. Duration : 1 h 32 min

  40. Bit rate mode : Constant

  41. Bit rate : 256 kb/s

  42. Channel(s) : 6 channels

  43. Channel layout : L R C LFE Ls Rs

  44. Sampling rate : 48.0 kHz

  45. Frame rate : 31.250 FPS (1536 SPF)

  46. Compression mode : Lossy

  47. Stream size : 170 MiB (6%)

  48. Service kind : Complete Main

  49. Default : Yes

  50. Forced : No



文件下载


除非特别注明,本文『济公之降龙降世.Master.Ji.Gong.2021.2160p.WEB-DL.H265.DDP5.1 2.65GB』来源于互联网机器人自动抓取,非本站原创。 浮游电影网不对本文拥有版权,如有侵犯,请联系邮箱:fuyouu#yandex.com[#换成@]投诉。我们会在15个工作日内删除。 但烦请转载时请标明出处:“本文转载于『浮游电影网』,原文地址:https://www.fuyouu.com/13541.html

评论吧骚年!

发表你的见解   

昵称*

E-mail*(建议输入,以便收到博主回复的提示邮件)

验证码*

您可以使用eMule或eMule Mod(Windows)、aMule(Win、Linux、Mac)等软件下载eD2k链接。。
eMule收藏集(.emulecollection)文件是您选中的所有链接的列表文件。eMule可以直接下载它们。
按住SHIFT键选择可以选中多个选择框。
可用文件名和大小选择器来选择文件。
文件名选择器帮您根据文件名称或后缀来选择文件。不分大小写。
符号使用:
和:空格( )、+
不包含:-
或:|
转义:一对英文引号("");
匹配开头:^
匹配结尾:$
例如:
选中所有名称中包含有“eMule”或“0.49c”字眼,但不包含有“exe”字眼的:emule|0.49c -exe
选中所有名称的开头是“eMule”,结尾是“0.49c”的:^emule 0.49c$
选中所有名称中带有“eMule 0.49c”的(必须是“eMule 0.49c”,中间没有别的字符,不能是“eMule fake 0.49c”),需要转义:"emule 0.49c"
大小选择器帮您根据文件大小选择文件。