当前位置: 首页 >> 国产电影 >> 少年班[国语音轨].The.Ark.of.Mr.Chow.2015.iTunes.WEB-DL.1080p.H.264.DD.5.1 3.72GB >> 正文

少年班[国语音轨].The.Ark.of.Mr.Chow.2015.iTunes.WEB-DL.1080p.H.264.DD.5.1 3.72GB

2021年08月11日 13:26:04     电影发布:来源于网络     电影分类:国产电影     评论(0)    

少年班[国语音轨].The.Ark.of.Mr.Chow.2015.iTunes.WEB DL.1080p.H.264.DD.5.1 3.72GB 喜剧片 剧情片 国产电影  第1张

◎译 名 少年班 / The Ark of Mr. Chow

◎年 代 2015

◎产 地 中国大陆

◎类 别 剧情 / 喜剧

◎语 言 汉语普通话

◎上映日期 2015-06-19(中国大陆)

◎IMDb链接 https://www.imdb.com/title/tt4727756/

◎豆瓣评分 6.0/10 (91739人评价)

◎豆瓣链接 https://movie.douban.com/subject/26219652/

◎片 长 106分钟

◎导 演 肖洋 Yang Xiao (id:1331182)

◎编 剧 张冀 Ji Zhang (id:1327606)

肖洋 Yang Xiao (id:1331182)

◎演 员 孙红雷 Honglei Sun (id:1053581)

周冬雨 Dongyu Zhou (id:1274224)

董子健 Zijian Dong (id:1330472)

王栎鑫 Yuexin Wang (id:1322486)

柳希龙 Xilong Liu (id:1349038)

李佳奇 Jiaqi Li (id:1330237)

王紫璇 Zixuan Wang (id:1348484)

赵立新 Lixin Zhao (id:1312817)

王森 Sen Wang (id:1314632)

易小星 Joshua (id:1317854)

韩寒 Han Han (id:1275307)

刘显达 Xianda Liu (id:1362214)

都金翰 Jinhan Du (id:1350175)

周铁 Tie Zhou (id:1353139)

程孝泽 Hsiao-tse Cheng (id:1312781)

陶昆 Kun Tao (id:1354359)

张家鲁 Chia-lu Chang (id:1274308)

陈国富 Kuo-fu Chen (id:1075862)

杨庭恺 Bernard Yang (id:1443208)

水谷广实 Hiromi Mizutani (id:1398347)

米昊易 (id:1439940)

◎标 签 青春 / 校园 / 成长 / 中国大陆 / 2015 / 剧情 / 喜剧 / 文艺

◎简 介

1998年,来自西安交大的“少年班”导师周知庸(孙红雷 饰),前往全国各处寻找智商超群的天才少年,最终被选出的22个少年将被赋予艰巨的使命。少年吴未(董子健 饰)就是其中的一员,在这个特殊的班级里,他先后认识了有暴力倾向的麦克(王栎鑫 饰)、小天才方厚正(李佳奇 饰)、“神棍”王大法(柳希龙 饰),以及聪明却冷若冰霜的周兰(周冬雨 饰),五位天才少年从此开始了早于同龄人的大学生活,同时还面对着青春期的各种“疑难杂症”。女神江依琳(夏天 饰)的出现扰乱了男生们的心,攻克“世界数学大赛”的压力也从天而降,而导师周知庸也面对着人生中的最大难题,“少年班”该何去何从?天才少年人生的征途才刚刚开始……

  1. ##### MediaInfo ######

  2. General

  3. Complete name : The.Ark.of.Mr..Chow.2015.iTunes.WEB-DL.1080p.H.264.DD.5.1-10015@BBQDDQ.COM.mp4

  4. Format : MPEG-4

  5. Codec ID : M4V (M4V /mp42/isom)

  6. File size : 3.72 GiB

  7. Duration : 1 h 44 min

  8. Overall bit rate mode : Variable

  9. Overall bit rate : 5 070 kb/s

  10. Movie name : The Ark of Mr. Chow

  11. Performer : XIAO YANG

  12. Performer/Sorted by : XIAO YANG

  13. Director : XIAO YANG

  14. Actor : Sun Hong-Lei / Zhou Dongyu / Dong Zijian / Wang Yuexin

  15. Production studio : CKF Pictures

  16. Genre : Drama

  17. ContentType : Short Film

  18. Description : A group of bright teenagers are recruited for a special college program for young geniuses only to

  19. Recorded date : UTC 2015-06-19 07:00:00

  20. Encoded date : UTC 2021-08-03 12:08:39

  21. Tagged date : UTC 2021-08-10 10:56:05

  22. Copyright : ? 2015 Chinalion Film Distribution, Inc.

  23. Cover : Yes

  24. Rating : None

  25. AppleStoreAccount :

  26. ownr :

  27. AppleStoreCatalogID : 1450025802

  28. GenreID : 4406

  29. AppleStoreCountry : United States

  30. PurchaseDate : 2021-07-31 10:35:38

  31. Title/Sort : Ark of Mr. Chow

  32. Flavour : 18:1080p

  33. ContentRating : mpaa|NR|10|

  34. LongDescription : A group of bright teenagers are recruited for a special college program for young geniuses only to find themselves socially awkward among their more normal peers. "The Ark of Mr. Chow" is a satirical take on the Chinese education system and how it emphasizes academic excellence over a student's overall personal development, especially outside of the academic curriculum. The Director, Xiao Yang, was part of the class and draws on his personal experiences with the system to paint a lighthearted but accurate portrayal of what it's like to grow up too intelligent for your own good.


  35. Video #1

  36. ID : 2

  37. Format : AVC

  38. Format/Info : Advanced Video Codec

  39. Format profile : High@L4

  40. Format settings : CABAC / 5 Ref Frames

  41. Format settings, CABAC : Yes

  42. Format settings, Reference frames : 5 frames

  43. Codec ID : avc1

  44. Codec ID/Info : Advanced Video Coding

  45. Duration : 1 h 44 min

  46. Bit rate : 4 556 kb/s

  47. Width : 1 914 pixels

  48. Height : 724 pixels

  49. Display aspect ratio : 2.644

  50. Frame rate mode : Constant

  51. Frame rate : 23.976 (23976/1000/53354) FPS

  52. Color space : YUV

  53. Chroma subsampling : 4:2:0

  54. Bit depth : 8 bits

  55. Scan type : Progressive

  56. Bits/(Pixel*Frame) : 0.137

  57. Stream size : 3.34 GiB (90%)

  58. Encoded date : UTC 2021-08-03 12:08:39

  59. Tagged date : UTC 2021-08-03 12:19:28

  60. Color range : Limited

  61. Color primaries : BT.709

  62. Transfer characteristics : BT.709

  63. Matrix coefficients : BT.709

  64. Menus : 5,6

  65. Codec configuration box : avcC


  66. Video #2

  67. ID : 6

  68. Format : JPEG

  69. Codec ID : jpeg

  70. Duration : 1 h 44 min

  71. Bit rate mode : Variable

  72. Bit rate : 817 b/s

  73. Width : 640 pixels

  74. Height : 242 pixels

  75. Display aspect ratio : 2.645

  76. Frame rate mode : Variable

  77. Frame rate : 0.003 FPS

  78. Minimum frame rate : 0.002 FPS

  79. Maximum frame rate : 0.004 FPS

  80. Color space : YUV

  81. Chroma subsampling : 4:2:0

  82. Bit depth : 8 bits

  83. Compression mode : Lossy

  84. Bits/(Pixel*Frame) : 1.758

  85. Stream size : 532 KiB (0%)

  86. Default : No

  87. Encoded date : UTC 2021-08-10 10:56:05

  88. Tagged date : UTC 2021-08-10 10:56:05

  89. Menu For : 2

  90. ColorSpace_ICC : RGB


  91. Audio #1

  92. ID : 1

  93. Format : AAC LC

  94. Format/Info : Advanced Audio Codec Low Complexity

  95. Codec ID : mp4a-40-2

  96. Duration : 1 h 44 min

  97. Bit rate mode : Variable

  98. Bit rate : 125 kb/s

  99. Maximum bit rate : 217 kb/s

  100. Channel(s) : 2 channels

  101. Channel layout : L R

  102. Sampling rate : 48.0 kHz

  103. Frame rate : 46.875 FPS (1024 SPF)

  104. Compression mode : Lossy

  105. Stream size : 94.1 MiB (2%)

  106. Language : Chinese

  107. Default : Yes

  108. Alternate group : 1

  109. Encoded date : UTC 2021-08-03 12:08:39

  110. Tagged date : UTC 2021-08-03 12:19:28

  111. Menus : 5

  112. tagc : public.main-program-content


  113. Audio #2

  114. ID : 3

  115. Format : AC-3

  116. Format/Info : Audio Coding 3

  117. Commercial name : Dolby Digital

  118. Codec ID : ac-3

  119. Duration : 1 h 44 min

  120. Bit rate mode : Constant

  121. Bit rate : 384 kb/s

  122. Channel(s) : 6 channels

  123. Channel layout : L R C LFE Ls Rs

  124. Sampling rate : 48.0 kHz

  125. Frame rate : 31.250 FPS (1536 SPF)

  126. Compression mode : Lossy

  127. Stream size : 288 MiB (8%)

  128. Language : Chinese

  129. Service kind : Complete Main

  130. Default : No

  131. Alternate group : 1

  132. Encoded date : UTC 2021-08-03 12:08:39

  133. Tagged date : UTC 2021-08-03 12:19:28

  134. tagc : public.auxiliary-content


  135. Text

  136. ID : 4

  137. Format : Timed Text

  138. Muxing mode : sbtl

  139. Codec ID : tx3g

  140. Duration : 1 h 40 min

  141. Bit rate mode : Variable

  142. Bit rate : 100 b/s

  143. Stream size : 73.8 KiB (0%)

  144. Language : English

  145. Default : Yes

  146. Forced : No

  147. Alternate group : 2

  148. Encoded date : UTC 2021-08-03 12:08:39

  149. Tagged date : UTC 2021-08-03 12:09:08

  150. tagc : public.main-program-content


  151. Menu

  152. ID : 5

  153. Codec ID : text

  154. Duration : 1 h 44 min

  155. Encoded date : UTC 2021-08-03 12:08:43

  156. Tagged date : UTC 2021-08-03 12:08:43

  157. Menu For : 1,2

  158. 00:00:00.000 : 1

  159. 00:08:54.000 : 2

  160. 00:15:07.000 : 3

  161. 00:21:45.000 : 4

  162. 00:27:37.000 : 5

  163. 00:33:33.000 : 6

  164. 00:40:00.000 : 7

  165. 00:47:03.000 : 8

  166. 00:52:07.000 : 9

  167. 00:59:22.000 : 10

  168. 01:07:19.000 : 11

  169. 01:11:19.000 : 12

  170. 01:18:28.000 : 13

  171. 01:24:51.000 : 14

  172. 01:31:11.000 : 15

  173. 01:38:55.000 : 16



文件下载


除非特别注明,本文『少年班[国语音轨].The.Ark.of.Mr.Chow.2015.iTunes.WEB-DL.1080p.H.264.DD.5.1 3.72GB』来源于互联网机器人自动抓取,非本站原创。 浮游电影网不对本文拥有版权,如有侵犯,请联系邮箱:fuyouu#yandex.com[#换成@]投诉。我们会在15个工作日内删除。 但烦请转载时请标明出处:“本文转载于『浮游电影网』,原文地址:https://www.fuyouu.com/13540.html

评论吧骚年!

发表你的见解   

昵称*

E-mail*(建议输入,以便收到博主回复的提示邮件)

验证码*

您可以使用eMule或eMule Mod(Windows)、aMule(Win、Linux、Mac)等软件下载eD2k链接。。
eMule收藏集(.emulecollection)文件是您选中的所有链接的列表文件。eMule可以直接下载它们。
按住SHIFT键选择可以选中多个选择框。
可用文件名和大小选择器来选择文件。
文件名选择器帮您根据文件名称或后缀来选择文件。不分大小写。
符号使用:
和:空格( )、+
不包含:-
或:|
转义:一对英文引号("");
匹配开头:^
匹配结尾:$
例如:
选中所有名称中包含有“eMule”或“0.49c”字眼,但不包含有“exe”字眼的:emule|0.49c -exe
选中所有名称的开头是“eMule”,结尾是“0.49c”的:^emule 0.49c$
选中所有名称中带有“eMule 0.49c”的(必须是“eMule 0.49c”,中间没有别的字符,不能是“eMule fake 0.49c”),需要转义:"emule 0.49c"
大小选择器帮您根据文件大小选择文件。