当前位置: 首页 >> 欧美电影 >> 校园大逃杀[双语字幕].Run.Hide.Fight.2020.1080p.BluRay.DTS.x265-10bit 5.74GB >> 正文

校园大逃杀[双语字幕].Run.Hide.Fight.2020.1080p.BluRay.DTS.x265-10bit 5.74GB

2021年08月11日 13:24:24     电影发布:来源于网络     电影分类:欧美电影     评论(0)    

校园大逃杀[双语字幕].Run.Hide.Fight.2020.1080p.BluRay.DTS.x265 10bit 5.74GB 犯罪片 惊悚片 动作片 欧美电影  第1张

◎译 名 校园大逃杀 / 校园大逃亡 / 杀戮校园

◎片 名 Run Hide Fight

◎年 代 2020

◎产 地 美国

◎类 别 动作 / 惊悚 / 犯罪

◎语 言 英语

◎上映日期 2020-09-10(威尼斯电影节) / 2021-01-14(美国)

◎IMDb链接 https://www.imdb.com/title/tt11456054/

◎豆瓣评分 5.9/10 (3462人评价)

◎豆瓣链接 https://movie.douban.com/subject/34930801/

◎片 长 109分钟

◎导 演 凯尔·兰金 Kyle Rankin (id:1295247)

◎编 剧 凯尔·兰金 Kyle Rankin (id:1295247)

◎演 员 伊莎贝尔·梅 Isabel May (id:1417011)

伊莱·布朗 Eli Brown (id:1413892)

奥利·索罗坦 Olly Sholotan (id:1450278)

托马斯·简 Thomas Jane (id:1031816)

拉达·米切尔 Radha Mitchell (id:1041109)

特里特·威廉斯 Treat Williams (id:1036434)

赛勒斯·阿诺德 Cyrus Arnold (id:1357675)

布里顿·瑟尔 Britton Sear (id:1397597)

芭芭拉·克兰普顿 Barbara Crampton (id:1014139)

乔尔·迈克利 Joel Michaely (id:1388531)

Gerardo Davila Gerardo Davila (id:1213150)

玛丽·迪斯 Mary Deese (id:1214457)

詹姆斯·希利 James Healy Jr. (id:1091655)

Mya Holloway (id:1235378)

Zachary Le Vey (id:1261035)

CG刘易斯 CG Lewis (id:1443049)

布赖恩·马西 Bryan Massey (id:1402549)

Amelia Galindo (id:1261399)

肯妮莎·汤普森 Kenneisha Thompson (id:1346280)

辛迪·维拉 Cindy Vela (id:1372341)

凯特·希金斯 Kate Higgins (id:1218909)

小克里斯·施密特 Chris Schmidt Jr. (id:1454740)

◎标 签 犯罪 / 美国 / 动作 / 惊悚 / 美国电影 / 2020 / 电影 / 恐怖

◎简 介

《Night Of The Living Deb》和《The Witch Files》背后的电影人凯尔·兰金(Kyle Rankin)完成了一项秘密项目“Run Hide Fight”,该项目讲述的是一个17岁的女孩,她必须用自己的智慧才能在学校拍摄中生存。现在,它将成为Rebeller公司发行的第一部电影,Cinestate发行了该电影来讨论所谓的“非法内容”空间中的电影,重点关注好莱坞忽视的类型以及好莱坞害怕的剧本。

  1. ##### MediaInfo ######

  2. General

  3. Unique ID : 236502558727564919654255595501153720341 (0xB1ECBC6909E18D39D3130479EA4C9815)

  4. Complete name : Run.Hide.Fight.2020.1080p.BluRay.DTS.x265-10bit-10007@BBQDDQ.COM.mkv

  5. Format : Matroska

  6. Format version : Version 4

  7. File size : 5.74 GiB

  8. Duration : 1 h 49 min

  9. Overall bit rate : 7 503 kb/s

  10. Movie name : Run Hide Fight 2020 1080p BluRay DTS x265-10bit-10007@BBQDDQ.COM

  11. Encoded date : UTC 2021-08-09 20:11:28

  12. Writing application : mkvmerge v38.0.0 ('The Silent Type') 64-bit

  13. Writing library : libebml v1.3.9 + libmatroska v1.5.2


  14. Video

  15. ID : 1

  16. Format : HEVC

  17. Format/Info : High Efficiency Video Coding

  18. Format profile : Main 10@L5.1@High

  19. Codec ID : V_MPEGH/ISO/HEVC

  20. Duration : 1 h 49 min

  21. Bit rate : 5 912 kb/s

  22. Width : 1 920 pixels

  23. Height : 804 pixels

  24. Display aspect ratio : 2.40:1

  25. Frame rate mode : Constant

  26. Frame rate : 23.976 (24000/1001/53354) FPS

  27. Color space : YUV

  28. Chroma subsampling : 4:2:0

  29. Bit depth : 10 bits

  30. Bits/(Pixel*Frame) : 0.160

  31. Stream size : 4.52 GiB (79%)

  32. Title : howfuckedareyounow@HDSky

  33. Writing library : x265 - H.265/HEVC codec

  34. Default : Yes

  35. Forced : No


  36. Audio

  37. ID : 2

  38. Format : DTS

  39. Format/Info : Digital Theater Systems

  40. Codec ID : A_DTS

  41. Duration : 1 h 49 min

  42. Bit rate mode : Constant

  43. Bit rate : 1 509 kb/s

  44. Channel(s) : 6 channels

  45. Channel layout : C L R Ls Rs LFE

  46. Sampling rate : 48.0 kHz

  47. Frame rate : 93.750 FPS (512 SPF)

  48. Bit depth : 24 bits

  49. Compression mode : Lossy

  50. Stream size : 1.15 GiB (20%)

  51. Title : English

  52. Language : English

  53. Default : Yes

  54. Forced : No


  55. Text #1

  56. ID : 3

  57. Format : PGS

  58. Muxing mode : zlib

  59. Codec ID : S_HDMV/PGS

  60. Codec ID/Info : Picture based subtitle format used on BDs/HD-DVDs

  61. Duration : 1 h 41 min

  62. Bit rate : 27.8 kb/s

  63. Count of elements : 2756

  64. Stream size : 20.3 MiB (0%)

  65. Title : CHS

  66. Language : Chinese

  67. Default : Yes

  68. Forced : No


  69. Text #2

  70. ID : 4

  71. Format : PGS

  72. Muxing mode : zlib

  73. Codec ID : S_HDMV/PGS

  74. Codec ID/Info : Picture based subtitle format used on BDs/HD-DVDs

  75. Duration : 1 h 41 min

  76. Bit rate : 28.2 kb/s

  77. Count of elements : 2756

  78. Stream size : 20.6 MiB (0%)

  79. Title : CHT

  80. Language : Chinese

  81. Default : No

  82. Forced : No


  83. Text #3

  84. ID : 5

  85. Format : PGS

  86. Muxing mode : zlib

  87. Codec ID : S_HDMV/PGS

  88. Codec ID/Info : Picture based subtitle format used on BDs/HD-DVDs

  89. Duration : 1 h 41 min

  90. Bit rate : 49.6 kb/s

  91. Count of elements : 2756

  92. Stream size : 36.1 MiB (1%)

  93. Title : CHS&ENG

  94. Language : Chinese

  95. Default : No

  96. Forced : No


  97. Text #4

  98. ID : 6

  99. Format : PGS

  100. Muxing mode : zlib

  101. Codec ID : S_HDMV/PGS

  102. Codec ID/Info : Picture based subtitle format used on BDs/HD-DVDs

  103. Duration : 1 h 41 min

  104. Bit rate : 50.5 kb/s

  105. Count of elements : 2756

  106. Stream size : 36.8 MiB (1%)

  107. Title : CHT&ENG

  108. Language : Chinese

  109. Default : No

  110. Forced : No


  111. Menu

  112. 00:00:00.000 : en:Chapter 01

  113. 00:16:51.636 : en:Chapter 02

  114. 00:36:58.049 : en:Chapter 03

  115. 00:54:51.788 : en:Chapter 04

  116. 01:14:09.695 : en:Chapter 05

  117. 01:31:16.262 : en:Chapter 06



文件下载


除非特别注明,本文『校园大逃杀[双语字幕].Run.Hide.Fight.2020.1080p.BluRay.DTS.x265-10bit 5.74GB』来源于互联网机器人自动抓取,非本站原创。 浮游电影网不对本文拥有版权,如有侵犯,请联系邮箱:fuyouu#yandex.com[#换成@]投诉。我们会在15个工作日内删除。 但烦请转载时请标明出处:“本文转载于『浮游电影网』,原文地址:https://www.fuyouu.com/13539.html

评论吧骚年!

发表你的见解   

昵称*

E-mail*(建议输入,以便收到博主回复的提示邮件)

验证码*

您可以使用eMule或eMule Mod(Windows)、aMule(Win、Linux、Mac)等软件下载eD2k链接。。
eMule收藏集(.emulecollection)文件是您选中的所有链接的列表文件。eMule可以直接下载它们。
按住SHIFT键选择可以选中多个选择框。
可用文件名和大小选择器来选择文件。
文件名选择器帮您根据文件名称或后缀来选择文件。不分大小写。
符号使用:
和:空格( )、+
不包含:-
或:|
转义:一对英文引号("");
匹配开头:^
匹配结尾:$
例如:
选中所有名称中包含有“eMule”或“0.49c”字眼,但不包含有“exe”字眼的:emule|0.49c -exe
选中所有名称的开头是“eMule”,结尾是“0.49c”的:^emule 0.49c$
选中所有名称中带有“eMule 0.49c”的(必须是“eMule 0.49c”,中间没有别的字符,不能是“eMule fake 0.49c”),需要转义:"emule 0.49c"
大小选择器帮您根据文件大小选择文件。