当前位置: 首页 >> 动画电影 >> 变形金刚大电影[国粤语音轨/双语字幕].The.Transformers.The.Movie.1986.2160p.HDR.UHD.BluRay.DTS-HD.MA.5.1.4Audio 10.45G >> 正文

变形金刚大电影[国粤语音轨/双语字幕].The.Transformers.The.Movie.1986.2160p.HDR.UHD.BluRay.DTS-HD.MA.5.1.4Audio 10.45G

2021年08月10日 11:34:41     电影发布:来源于网络     电影分类:动画电影     评论(0)    

变形金刚大电影[国粤语音轨/双语字幕].The.Transformers.The.Movie.1986.2160p.HDR.UHD.BluRay.DTS HD.MA.5.1.4Audio 10.45G 冒险片 动画片 科幻片 动作片 动画电影  第1张

◎译 名 变形金刚大电影 / 变形金刚:大电影 / Transformers: Matrix yo eien ni

◎片 名 The Transformers: The Movie

◎年 代 1986

◎产 地 美国 / 日本

◎类 别 动作 / 科幻 / 动画 / 冒险

◎语 言 英语 / 日语

◎上映日期 1986-08-08(美国)

◎IMDb链接 https://www.imdb.com/title/tt0092106/

◎豆瓣评分 8.3/10 (4742人评价)

◎豆瓣链接 https://movie.douban.com/subject/1296109/

◎片 长 84分钟

◎导 演 尼尔森·申 Nelson Shin (id:1297477)

◎编 剧 Ron Friedman Ron Friedman (id:1284231)

◎演 员 彼特·库伦 Peter Cullen (id:1025212)

伦纳德·尼莫伊 Leonard Nimoy (id:1002706)

弗兰克·维尔克 Frank Welker (id:1031825)

奥逊·威尔斯 Orson Welles (id:1048149)

贾德·尼尔森 Judd Nelson (id:1036363)

克里斯·拉塔 Chris Latta (id:1111410)

诺曼·阿尔登 Norman Alden (id:1053510)

杰克·安杰尔 Jack Angel (id:1040769)

迈克尔·贝尔 Michael Bell (id:1063548)

格雷格·白尔杰 Gregg Berger (id:1062095)

苏珊·布卢 Susan Blu (id:1063641)

科里·伯顿 Corey Burton (id:1069602)

罗杰·C·卡梅尔 Roger C. Carmel (id:1068452)

维克多·卡洛里 Victor Caroli (id:1321087)

Regis Cordic Regis Cordic (id:1068828)

斯加特曼·克罗索斯 Scatman Crothers (id:1019092)

Bud Davis Bud Davis (id:1079979)

Walker Edmiston Walker Edmiston (id:1086558)

保罗·伊丁 Paul Eiding (id:1088278)

Michael Bell Michael Bell (id:1209724)

尼尔森·申 Nelson Shin (id:1297477)

Vince DiCola Vince DiCola (id:1282408)

David Hankins David Hankins (id:1285964)

◎标 签 动画 / 变形金刚 / 美国 / 科幻 / 童年回忆 / 动画片 / 美国电影 / 1986

◎简 介

2005年,经过多年的正邪之争,汽车人终于将霸天虎赶出地球。然而威震天却率领部众入侵了汽车人的总部塞伯坦行星,擎天柱留下通天晓等战士驻守地球,自己则带人马于塞伯坦旁边的两颗卫星建立秘密基地,计划对霸天虎施以致命一击。但是计划被霸天虎侦得,威震天率先对行星和地球的汽车人发起攻击。战斗中擎天柱不幸牺牲,威震天也伤势严重。

弥留之际,擎天柱将领导模块传给通天晓。而邪恶的宇宙大帝为了摧毁阻碍自己的领导模块,拯救了被红蜘蛛背叛和抛弃的威震天,将其改造为更为强大的惊破天。汽车人和霸天虎新一代领导人相继浮出水面,正邪大战不断升级……

  1. ##### MediaInfo ######

  2. General

  3. Unique ID : 203439853338625038938907391051505451295 (0x990D172DCDC5F8D60B378AEA9281C11F)

  4. Complete name : The.Transformers.The.Movie.1986.2160p.HDR.UHD.BluRay.DTS-HD.MA.5.1.4Audio.x265-10bit-10007@BBQDDQ.COM.mkv

  5. Format : Matroska

  6. Format version : Version 4

  7. File size : 10.4 GiB

  8. Duration : 1 h 25 min

  9. Overall bit rate mode : Variable

  10. Overall bit rate : 17.6 Mb/s

  11. Movie name : The Transformers: The Movie

  12. Encoded date : UTC 2021-08-09 05:32:07

  13. Writing application : mkvmerge v44.0.0 ('Domino') 64-bit

  14. Writing library : libebml v1.3.10 + libmatroska v1.5.2

  15. Cover : Yes

  16. Attachments : cover.jpg


  17. Video

  18. ID : 1

  19. Format : HEVC

  20. Format/Info : High Efficiency Video Coding

  21. Format profile : Main 10@L5.1@High

  22. HDR format : SMPTE ST 2086, HDR10 compatible

  23. Codec ID : V_MPEGH/ISO/HEVC

  24. Duration : 1 h 25 min

  25. Bit rate : 12.6 Mb/s

  26. Width : 3 840 pixels

  27. Height : 2 072 pixels

  28. Display aspect ratio : 1.85:1

  29. Frame rate mode : Constant

  30. Frame rate : 23.976 (24000/1001/53354) FPS

  31. Color space : YUV

  32. Chroma subsampling : 4:2:0

  33. Bit depth : 10 bits

  34. Bits/(Pixel*Frame) : 0.066

  35. Stream size : 7.46 GiB (71%)

  36. Title : @HDSky

  37. Writing library : x265 - H.265/HEVC codec

  38. Default : Yes

  39. Forced : No

  40. Color range : Limited

  41. Color primaries : BT.2020

  42. Transfer characteristics : PQ

  43. Matrix coefficients : BT.2020 non-constant

  44. Mastering display color primaries : Display P3

  45. Mastering display luminance : min: 0.0020 cd/m2, max: 1000 cd/m2

  46. Maximum Content Light Level : 739 cd/m2

  47. Maximum Frame-Average Light Level : 331 cd/m2


  48. Audio #1

  49. ID : 2

  50. Format : DTS XLL

  51. Format/Info : Digital Theater Systems

  52. Commercial name : DTS-HD Master Audio

  53. Codec ID : A_DTS

  54. Duration : 1 h 25 min

  55. Bit rate mode : Variable

  56. Bit rate : 4 385 kb/s

  57. Channel(s) : 6 channels

  58. Channel layout : C L R Ls Rs LFE

  59. Sampling rate : 48.0 kHz

  60. Frame rate : 93.750 FPS (512 SPF)

  61. Bit depth : 24 bits

  62. Compression mode : Lossless

  63. Stream size : 2.60 GiB (25%)

  64. Title : English

  65. Language : English

  66. Default : Yes

  67. Forced : No


  68. Audio #2

  69. ID : 3

  70. Format : AC-3

  71. Format/Info : Audio Coding 3

  72. Commercial name : Dolby Digital

  73. Codec ID : A_AC3

  74. Duration : 1 h 24 min

  75. Bit rate mode : Constant

  76. Bit rate : 192 kb/s

  77. Channel(s) : 2 channels

  78. Channel layout : L R

  79. Sampling rate : 48.0 kHz

  80. Frame rate : 31.250 FPS (1536 SPF)

  81. Compression mode : Lossy

  82. Delay relative to video : 1 s 201 ms

  83. Stream size : 117 MiB (1%)

  84. Title : Mandarin

  85. Language : Chinese

  86. Service kind : Complete Main

  87. Default : No

  88. Forced : No


  89. Audio #3

  90. ID : 4

  91. Format : AC-3

  92. Format/Info : Audio Coding 3

  93. Commercial name : Dolby Digital

  94. Codec ID : A_AC3

  95. Duration : 1 h 24 min

  96. Bit rate mode : Constant

  97. Bit rate : 192 kb/s

  98. Channel(s) : 2 channels

  99. Channel layout : L R

  100. Sampling rate : 48.0 kHz

  101. Frame rate : 31.250 FPS (1536 SPF)

  102. Compression mode : Lossy

  103. Delay relative to video : 1 s 201 ms

  104. Stream size : 117 MiB (1%)

  105. Title : Cantonese

  106. Language : Chinese

  107. Service kind : Complete Main

  108. Default : No

  109. Forced : No


  110. Audio #4

  111. ID : 5

  112. Format : AC-3

  113. Format/Info : Audio Coding 3

  114. Commercial name : Dolby Digital

  115. Codec ID : A_AC3

  116. Duration : 1 h 24 min

  117. Bit rate mode : Constant

  118. Bit rate : 192 kb/s

  119. Channel(s) : 2 channels

  120. Channel layout : L R

  121. Sampling rate : 48.0 kHz

  122. Frame rate : 31.250 FPS (1536 SPF)

  123. Compression mode : Lossy

  124. Delay relative to video : 1 s 201 ms

  125. Stream size : 117 MiB (1%)

  126. Title : Mandarin

  127. Language : Chinese

  128. Service kind : Complete Main

  129. Default : No

  130. Forced : No


  131. Text #1

  132. ID : 6

  133. Format : PGS

  134. Muxing mode : zlib

  135. Codec ID : S_HDMV/PGS

  136. Codec ID/Info : Picture based subtitle format used on BDs/HD-DVDs

  137. Duration : 1 h 23 min

  138. Bit rate : 26.9 kb/s

  139. Count of elements : 1851

  140. Stream size : 16.0 MiB (0%)

  141. Title : ENG

  142. Language : English

  143. Default : Yes

  144. Forced : No


  145. Text #2

  146. ID : 7

  147. Format : PGS

  148. Muxing mode : zlib

  149. Codec ID : S_HDMV/PGS

  150. Codec ID/Info : Picture based subtitle format used on BDs/HD-DVDs

  151. Duration : 1 h 18 min

  152. Bit rate : 17.8 kb/s

  153. Count of elements : 1308

  154. Stream size : 9.98 MiB (0%)

  155. Title : CHS

  156. Language : Chinese

  157. Default : No

  158. Forced : No


  159. Text #3

  160. ID : 8

  161. Format : PGS

  162. Muxing mode : zlib

  163. Codec ID : S_HDMV/PGS

  164. Codec ID/Info : Picture based subtitle format used on BDs/HD-DVDs

  165. Duration : 1 h 18 min

  166. Bit rate : 18.4 kb/s

  167. Count of elements : 1308

  168. Stream size : 10.3 MiB (0%)

  169. Title : CHT

  170. Language : Chinese

  171. Default : No

  172. Forced : No


  173. Text #4

  174. ID : 9

  175. Format : PGS

  176. Muxing mode : zlib

  177. Codec ID : S_HDMV/PGS

  178. Codec ID/Info : Picture based subtitle format used on BDs/HD-DVDs

  179. Duration : 1 h 18 min

  180. Bit rate : 31.3 kb/s

  181. Count of elements : 1310

  182. Stream size : 17.5 MiB (0%)

  183. Title : CHS&ENG

  184. Language : Chinese

  185. Default : No

  186. Forced : No


  187. Text #5

  188. ID : 10

  189. Format : PGS

  190. Muxing mode : zlib

  191. Codec ID : S_HDMV/PGS

  192. Codec ID/Info : Picture based subtitle format used on BDs/HD-DVDs

  193. Duration : 1 h 18 min

  194. Bit rate : 31.8 kb/s

  195. Count of elements : 1310

  196. Stream size : 17.9 MiB (0%)

  197. Title : CHT&ENG

  198. Language : Chinese

  199. Default : No

  200. Forced : No


  201. Menu

  202. 00:00:00.000 : en:第 01 章

  203. 00:07:06.843 : en:第 02 章

  204. 00:12:00.928 : en:第 03 章

  205. 00:19:26.206 : en:第 04 章

  206. 00:26:27.877 : en:第 05 章

  207. 00:37:02.220 : en:第 06 章

  208. 00:44:21.450 : en:第 07 章

  209. 00:51:13.111 : en:第 08 章

  210. 00:56:48.196 : en:第 09 章

  211. 01:03:56.582 : en:第 10 章

  212. 01:11:10.599 : en:第 11 章

  213. 01:19:00.736 : en:第 12 章



文件下载


除非特别注明,本文『变形金刚大电影[国粤语音轨/双语字幕].The.Transformers.The.Movie.1986.2160p.HDR.UHD.BluRay.DTS-HD.MA.5.1.4Audio 10.45G』来源于互联网机器人自动抓取,非本站原创。 浮游电影网不对本文拥有版权,如有侵犯,请联系邮箱:fuyouu#yandex.com[#换成@]投诉。我们会在15个工作日内删除。 但烦请转载时请标明出处:“本文转载于『浮游电影网』,原文地址:https://www.fuyouu.com/13505.html

评论吧骚年!

发表你的见解   

昵称*

E-mail*(建议输入,以便收到博主回复的提示邮件)

验证码*

您可以使用eMule或eMule Mod(Windows)、aMule(Win、Linux、Mac)等软件下载eD2k链接。。
eMule收藏集(.emulecollection)文件是您选中的所有链接的列表文件。eMule可以直接下载它们。
按住SHIFT键选择可以选中多个选择框。
可用文件名和大小选择器来选择文件。
文件名选择器帮您根据文件名称或后缀来选择文件。不分大小写。
符号使用:
和:空格( )、+
不包含:-
或:|
转义:一对英文引号("");
匹配开头:^
匹配结尾:$
例如:
选中所有名称中包含有“eMule”或“0.49c”字眼,但不包含有“exe”字眼的:emule|0.49c -exe
选中所有名称的开头是“eMule”,结尾是“0.49c”的:^emule 0.49c$
选中所有名称中带有“eMule 0.49c”的(必须是“eMule 0.49c”,中间没有别的字符,不能是“eMule fake 0.49c”),需要转义:"emule 0.49c"
大小选择器帮您根据文件大小选择文件。