当前位置: 首页 >> 欧美电影 >> 黑羊[中文字幕].Black.Sheep.1996.1080p.BluRay.DD5.1.x265-10bit 10.45GB >> 正文

黑羊[中文字幕].Black.Sheep.1996.1080p.BluRay.DD5.1.x265-10bit 10.45GB

2021年08月10日 11:32:01     电影发布:来源于网络     电影分类:欧美电影     评论(0)    

黑羊[中文字幕].Black.Sheep.1996.1080p.BluRay.DD5.1.x265 10bit 10.45GB 喜剧片 欧美电影  第1张

◎译 名 黑羊 / 冒牌大间谍 / 害群之马

◎片 名 Black Sheep

◎年 代 1996

◎产 地 美国

◎类 别 喜剧

◎语 言 英语

◎上映日期 1996-02-02

◎IMDb链接 https://www.imdb.com/title/tt0115697/

◎豆瓣评分 5.7/10 (124人评价)

◎豆瓣链接 https://movie.douban.com/subject/1422985/

◎片 长 87 分钟

◎导 演 佩内洛普·斯皮瑞斯 Penelope Spheeris (id:1036821)

◎编 剧 弗雷德·沃尔夫 Fred Wolf (id:1162069)

◎演 员 克里斯·法利 Chris Farley (id:1055984)

Steve Neil Turner Steve Neil Turner (id:1152594)

塔克·斯莫尔伍德 Tucker Smallwood (id:1159505)

弗雷德·沃尔夫 Fred Wolf (id:1162069)

大卫·圣.詹姆斯 David St. James (id:1154210)

Drew Wilson Drew Wilson (id:1165948)

Jimmy Workman Jimmy Workman (id:1167801)

Kathleen Card Kathleen Card (id:1194464)

约翰·阿什克 John Ashker (id:1014485)

LaRita Shelby LaRita Shelby (id:1144351)

凯思琳·奥马利 Kathleen O'Malley (id:1136445)

朱莉·本茨 Julie Benz (id:1044710)

约翰·法利 John Farley (id:1041254)

克里斯·欧文 Chris Owen (id:1027871)

凯文·P·法利 Kevin P. Farley (id:1018132)

提姆·麦锡森 Tim Matheson (id:1013872)

布鲁斯·麦克吉尔 Bruce McGill (id:1010626)

加里·布塞 Gary Busey (id:1010573)

大卫·斯佩德 David Spade (id:1010541)

格兰特·赫斯洛夫 Grant Heslov (id:1048206)

克斯汀·埃伯索尔 Christine Ebersole (id:1055425)

帕特里夏·普莱斯 Patricia Place (id:1135917)

Dan Peters Dan Peters (id:1128970)

Matt Lukin Matt Lukin (id:1124108)

Austin Kottke Austin Kottke (id:1113964)

琼·斯皮格勒·霍华德 Jean Speegle Howard (id:1101417)

蒂莫西·卡哈特 Timothy Carhart (id:1074207)

迈克尔·帕特里克·卡特 Michael Patrick Carter (id:1074182)

Mark Arm Mark Arm (id:1056447)

博伊德·班克斯 Boyd Banks (id:1000548)

洛恩·迈克尔斯 Lorne Michaels (id:1041290)

Robert K. Weiss Robert K. Weiss (id:1300658)

C.O. Erickson C.O. Erickson (id:1038310)

威廉·罗斯 William Ross (id:1296142)

Daryn Okada Daryn Okada (id:1016936)

德博拉·阿奎拉 Deborah Aquila (id:1277347)

Jane Shannon-Smith Jane Shannon-Smith (id:1297325)

琳达·斯菲里斯 Linda Spheeris (id:1298147)

Jill M. Ohanneson Jill M. Ohanneson (id:1293497)

James Lee McCoy James Lee McCoy (id:1291498)

Francisco X. Pérez Francisco X. Pérez (id:1280155)

Candida Conery Candida Conery (id:1281122)

Danny Valencia Danny Valencia (id:1299790)

马克·贝克 Mat Beck (id:1278183)

埃德森·威廉姆斯 Edson Williams (id:1043237)

科林·施特劳斯 Colin Strause (id:1041429)

格雷格·施特劳斯 Greg Strause (id:1014448)

David Sosalla David Sosalla (id:1298080)

◎标 签 喜剧 / 美国 / 政治 / 恶搞 / 美国电影 / 无厘头 / 1996 / 温情

◎简 介

Al(提姆·麦锡森 Tim Matheson 饰)是个十分被看好的州长候选人,很怕因为他的笨蛋老弟Mike(克里斯·法雷 Chris Farley 饰)蒙羞,于是雇了Steve(大卫·斯佩德 David Spade 饰)来看管Mike以免他出什么乱子,从这一刻起就状况百出、 笑料不断。

全片就像是一个喜剧大杂烩,让您捧腹大笑,跌破眼镜。

  1. ##### MediaInfo ######

  2. General

  3. Unique ID : 66195613185250991722453981705520723011 (0x31CCCFB56C7330D5322DAE57BB7EB443)

  4. Complete name : Black.Sheep.1996.1080p.BluRay.DD5.1.x265-10bit-10007@BBQDDQ.COM.mkv

  5. Format : Matroska

  6. Format version : Version 4

  7. File size : 10.5 GiB

  8. Duration : 1 h 26 min

  9. Overall bit rate : 17.3 Mb/s

  10. Movie name : Black Sheep 1996 1080p BluRay DD5.1 x265-10bit-10007@BBQDDQ.COM

  11. Encoded date : UTC 2021-08-09 00:06:40

  12. Writing application : mkvmerge v38.0.0 ('The Silent Type') 64-bit

  13. Writing library : libebml v1.3.9 + libmatroska v1.5.2


  14. Video

  15. ID : 1

  16. Format : HEVC

  17. Format/Info : High Efficiency Video Coding

  18. Format profile : Main 10@L5.1@High

  19. Codec ID : V_MPEGH/ISO/HEVC

  20. Duration : 1 h 26 min

  21. Bit rate : 16.6 Mb/s

  22. Width : 1 920 pixels

  23. Height : 1 080 pixels

  24. Display aspect ratio : 16:9

  25. Frame rate mode : Constant

  26. Frame rate : 23.976 (24000/1001/53354) FPS

  27. Color space : YUV

  28. Chroma subsampling : 4:2:0

  29. Bit depth : 10 bits

  30. Bits/(Pixel*Frame) : 0.334

  31. Stream size : 10.0 GiB (96%)

  32. Title : veryzayin@HDSky

  33. Writing library : x265 - H.265/HEVC codec

  34. Default : Yes

  35. Forced : No


  36. Audio

  37. ID : 2

  38. Format : AC-3

  39. Format/Info : Audio Coding 3

  40. Commercial name : Dolby Digital

  41. Codec ID : A_AC3

  42. Duration : 1 h 26 min

  43. Bit rate mode : Constant

  44. Bit rate : 640 kb/s

  45. Channel(s) : 5 channels

  46. Channel layout : L R C Ls Rs

  47. Sampling rate : 48.0 kHz

  48. Frame rate : 31.250 FPS (1536 SPF)

  49. Compression mode : Lossy

  50. Stream size : 396 MiB (4%)

  51. Title : English

  52. Language : English

  53. Service kind : Complete Main

  54. Default : Yes

  55. Forced : No


  56. Text #1

  57. ID : 3

  58. Format : PGS

  59. Muxing mode : zlib

  60. Codec ID : S_HDMV/PGS

  61. Codec ID/Info : Picture based subtitle format used on BDs/HD-DVDs

  62. Duration : 1 h 22 min

  63. Bit rate : 40.3 kb/s

  64. Count of elements : 2354

  65. Stream size : 23.7 MiB (0%)

  66. Title : CHS

  67. Language : Chinese

  68. Default : Yes

  69. Forced : No


  70. Text #2

  71. ID : 4

  72. Format : PGS

  73. Muxing mode : zlib

  74. Codec ID : S_HDMV/PGS

  75. Codec ID/Info : Picture based subtitle format used on BDs/HD-DVDs

  76. Duration : 1 h 22 min

  77. Bit rate : 41.1 kb/s

  78. Count of elements : 2354

  79. Stream size : 24.2 MiB (0%)

  80. Title : CHT

  81. Language : Chinese

  82. Default : No

  83. Forced : No


  84. Menu

  85. 00:00:00.000 : en:Chapter 01

  86. 00:05:02.344 : en:Chapter 02

  87. 00:10:11.736 : en:Chapter 03

  88. 00:14:32.246 : en:Chapter 04

  89. 00:17:50.319 : en:Chapter 05

  90. 00:23:13.851 : en:Chapter 06

  91. 00:27:45.831 : en:Chapter 07

  92. 00:34:22.435 : en:Chapter 08

  93. 00:38:23.134 : en:Chapter 09

  94. 00:40:15.830 : en:Chapter 10

  95. 00:42:03.646 : en:Chapter 11

  96. 00:50:24.647 : en:Chapter 12

  97. 00:57:34.326 : en:Chapter 13

  98. 01:00:00.013 : en:Chapter 14

  99. 01:05:13.576 : en:Chapter 15

  100. 01:11:50.306 : en:Chapter 16

  101. 01:20:46.925 : en:Chapter 17



文件下载


除非特别注明,本文『黑羊[中文字幕].Black.Sheep.1996.1080p.BluRay.DD5.1.x265-10bit 10.45GB』来源于互联网机器人自动抓取,非本站原创。 浮游电影网不对本文拥有版权,如有侵犯,请联系邮箱:fuyouu#yandex.com[#换成@]投诉。我们会在15个工作日内删除。 但烦请转载时请标明出处:“本文转载于『浮游电影网』,原文地址:https://www.fuyouu.com/13503.html

评论吧骚年!

发表你的见解   

昵称*

E-mail*(建议输入,以便收到博主回复的提示邮件)

验证码*

您可以使用eMule或eMule Mod(Windows)、aMule(Win、Linux、Mac)等软件下载eD2k链接。。
eMule收藏集(.emulecollection)文件是您选中的所有链接的列表文件。eMule可以直接下载它们。
按住SHIFT键选择可以选中多个选择框。
可用文件名和大小选择器来选择文件。
文件名选择器帮您根据文件名称或后缀来选择文件。不分大小写。
符号使用:
和:空格( )、+
不包含:-
或:|
转义:一对英文引号("");
匹配开头:^
匹配结尾:$
例如:
选中所有名称中包含有“eMule”或“0.49c”字眼,但不包含有“exe”字眼的:emule|0.49c -exe
选中所有名称的开头是“eMule”,结尾是“0.49c”的:^emule 0.49c$
选中所有名称中带有“eMule 0.49c”的(必须是“eMule 0.49c”,中间没有别的字符,不能是“eMule fake 0.49c”),需要转义:"emule 0.49c"
大小选择器帮您根据文件大小选择文件。