当前位置: 首页 >> 欧美电影 >> 难以置信的怪物[双语字幕].Impossible.Monsters.2019.1080p.BluRay.DTS.x265-10bit 7.14GB >> 正文

难以置信的怪物[双语字幕].Impossible.Monsters.2019.1080p.BluRay.DTS.x265-10bit 7.14GB

2021年08月10日 11:28:35     电影发布:来源于网络     电影分类:欧美电影     评论(0)    

难以置信的怪物[双语字幕].Impossible.Monsters.2019.1080p.BluRay.DTS.x265 10bit 7.14GB 惊悚片 欧美电影  第1张

◎译 名 难以置信的怪物

◎片 名 Impossible Monsters

◎年 代 2019

◎产 地 美国

◎类 别 惊悚

◎语 言 英语

◎上映日期 2019-03-09(Cinequest电影节)

◎IMDb链接 https://www.imdb.com/title/tt4328094/

◎豆瓣评分 4.2/10 (241人评价)

◎豆瓣链接 https://movie.douban.com/subject/34983341/

◎片 长 84分钟

◎演 员 圣蒂诺·方塔纳 Santino Fontana (id:1336310)

丹尼斯·布特斯卡里斯 Dennis Boutsikaris (id:1076290)

莱拉·罗宾斯 Laila Robins (id:1140958)

杰弗里·欧文斯 Geoffrey Owens (id:1128129)

德维卡·贝斯 Devika Bhise (id:1361286)

Mercer Boffey Mercer Boffey (id:1422948)

莉安卡·格鲁尤 Lyanka Gryu (id:1226761)

詹尼弗·林 Jennifer Lim (id:1333951)

Alison Fraser Alison Fraser (id:1086285)

克里斯·亨利·科菲 Chris Henry Coffey (id:1070779)

◎标 签 惊悚 / 美国 / 2019 / 悬疑 / 心理 / 网盘没 / 快进看的 / 海报

◎简 介

由于梦想与现实之间的界线越来越模糊,一位雄心勃勃的教授陷入了谋杀一名睡眠研究参与者的困境。

  1. ##### MediaInfo ######

  2. General

  3. Unique ID : 159400843470728122032484985142383175998 (0x77EB7C5AC5E22B7EEEF25AB069D7693E)

  4. Complete name : Impossible.Monsters.2019.1080p.BluRay.DTS.x265-10bit-10007@BBQDDQ.COM.mkv

  5. Format : Matroska

  6. Format version : Version 4

  7. File size : 7.14 GiB

  8. Duration : 1 h 23 min

  9. Overall bit rate : 12.2 Mb/s

  10. Movie name : Impossible Monsters 2019 1080p BluRay DTS x265-10bit-10007@BBQDDQ.COM

  11. Encoded date : UTC 2021-08-08 23:15:57

  12. Writing application : mkvmerge v38.0.0 ('The Silent Type') 64-bit

  13. Writing library : libebml v1.3.9 + libmatroska v1.5.2


  14. Video

  15. ID : 1

  16. Format : HEVC

  17. Format/Info : High Efficiency Video Coding

  18. Format profile : Main 10@L5.1@High

  19. Codec ID : V_MPEGH/ISO/HEVC

  20. Duration : 1 h 23 min

  21. Bit rate : 10.6 Mb/s

  22. Width : 1 920 pixels

  23. Height : 804 pixels

  24. Display aspect ratio : 2.40:1

  25. Frame rate mode : Constant

  26. Frame rate : 23.976 (24000/1001/53354) FPS

  27. Color space : YUV

  28. Chroma subsampling : 4:2:0

  29. Bit depth : 10 bits

  30. Bits/(Pixel*Frame) : 0.286

  31. Stream size : 6.20 GiB (87%)

  32. Title : veryzayin@HDSky

  33. Writing library : x265 - H.265/HEVC codec

  34. Default : Yes

  35. Forced : No


  36. Audio

  37. ID : 2

  38. Format : DTS

  39. Format/Info : Digital Theater Systems

  40. Codec ID : A_DTS

  41. Duration : 1 h 23 min

  42. Bit rate mode : Constant

  43. Bit rate : 1 509 kb/s

  44. Channel(s) : 6 channels

  45. Channel layout : C L R Ls Rs LFE

  46. Sampling rate : 48.0 kHz

  47. Frame rate : 93.750 FPS (512 SPF)

  48. Bit depth : 24 bits

  49. Compression mode : Lossy

  50. Stream size : 906 MiB (12%)

  51. Title : English

  52. Language : English

  53. Default : Yes

  54. Forced : No


  55. Text #1

  56. ID : 3

  57. Format : PGS

  58. Muxing mode : zlib

  59. Codec ID : S_HDMV/PGS

  60. Codec ID/Info : Picture based subtitle format used on BDs/HD-DVDs

  61. Duration : 1 h 22 min

  62. Bit rate : 30.1 kb/s

  63. Count of elements : 1861

  64. Stream size : 17.8 MiB (0%)

  65. Title : CHS

  66. Language : Chinese

  67. Default : Yes

  68. Forced : No


  69. Text #2

  70. ID : 4

  71. Format : PGS

  72. Muxing mode : zlib

  73. Codec ID : S_HDMV/PGS

  74. Codec ID/Info : Picture based subtitle format used on BDs/HD-DVDs

  75. Duration : 1 h 22 min

  76. Bit rate : 30.8 kb/s

  77. Count of elements : 1861

  78. Stream size : 18.2 MiB (0%)

  79. Title : CHT

  80. Language : Chinese

  81. Default : No

  82. Forced : No


  83. Text #3

  84. ID : 5

  85. Format : PGS

  86. Muxing mode : zlib

  87. Codec ID : S_HDMV/PGS

  88. Codec ID/Info : Picture based subtitle format used on BDs/HD-DVDs

  89. Duration : 1 h 22 min

  90. Bit rate : 45.9 kb/s

  91. Count of elements : 1861

  92. Stream size : 27.2 MiB (0%)

  93. Title : CHS&ENG

  94. Language : Chinese

  95. Default : No

  96. Forced : No


  97. Text #4

  98. ID : 6

  99. Format : PGS

  100. Muxing mode : zlib

  101. Codec ID : S_HDMV/PGS

  102. Codec ID/Info : Picture based subtitle format used on BDs/HD-DVDs

  103. Duration : 1 h 22 min

  104. Bit rate : 46.5 kb/s

  105. Count of elements : 1861

  106. Stream size : 27.6 MiB (0%)

  107. Title : CHT&ENG

  108. Language : Chinese

  109. Default : No

  110. Forced : No


  111. Menu

  112. 00:00:00.000 : en:Chapter 01

  113. 00:10:33.007 : en:Chapter 02

  114. 00:19:47.478 : en:Chapter 03

  115. 00:30:29.953 : en:Chapter 04

  116. 00:40:11.534 : en:Chapter 05

  117. 00:50:43.999 : en:Chapter 06

  118. 01:00:48.895 : en:Chapter 07

  119. 01:09:27.789 : en:Chapter 08

  120. 01:19:15.876 : en:Chapter 09


文件下载


除非特别注明,本文『难以置信的怪物[双语字幕].Impossible.Monsters.2019.1080p.BluRay.DTS.x265-10bit 7.14GB』来源于互联网机器人自动抓取,非本站原创。 浮游电影网不对本文拥有版权,如有侵犯,请联系邮箱:fuyouu#yandex.com[#换成@]投诉。我们会在15个工作日内删除。 但烦请转载时请标明出处:“本文转载于『浮游电影网』,原文地址:https://www.fuyouu.com/13500.html

评论吧骚年!

发表你的见解   

昵称*

E-mail*(建议输入,以便收到博主回复的提示邮件)

验证码*

您可以使用eMule或eMule Mod(Windows)、aMule(Win、Linux、Mac)等软件下载eD2k链接。。
eMule收藏集(.emulecollection)文件是您选中的所有链接的列表文件。eMule可以直接下载它们。
按住SHIFT键选择可以选中多个选择框。
可用文件名和大小选择器来选择文件。
文件名选择器帮您根据文件名称或后缀来选择文件。不分大小写。
符号使用:
和:空格( )、+
不包含:-
或:|
转义:一对英文引号("");
匹配开头:^
匹配结尾:$
例如:
选中所有名称中包含有“eMule”或“0.49c”字眼,但不包含有“exe”字眼的:emule|0.49c -exe
选中所有名称的开头是“eMule”,结尾是“0.49c”的:^emule 0.49c$
选中所有名称中带有“eMule 0.49c”的(必须是“eMule 0.49c”,中间没有别的字符,不能是“eMule fake 0.49c”),需要转义:"emule 0.49c"
大小选择器帮您根据文件大小选择文件。