当前位置: 首页 >> 国产电影 >> 革命者.The.Pioneer.2021.WEB-DL.4K.H265.AAC.5.1 11.41GB >> 正文

革命者.The.Pioneer.2021.WEB-DL.4K.H265.AAC.5.1 11.41GB

2021年08月10日 11:15:07     电影发布:来源于网络     电影分类:国产电影     评论(0)    

革命者.The.Pioneer.2021.WEB DL.4K.H265.AAC.5.1 11.41GB 历史 剧情片 国产电影  第1张

◎译 名 革命者 / The Pioneer

◎年 代 2021

◎产 地 中国大陆

◎类 别 剧情 / 历史

◎语 言 汉语普通话

◎上映日期 2021-07-01(中国大陆)

◎IMDb链接 https://www.imdb.com/title/tt14922172/

◎豆瓣评分 7.5/10 (53944人评价)

◎豆瓣链接 https://movie.douban.com/subject/35288767/

◎片 长 121分钟

◎导 演 徐展雄 Zhanxiong Xu (id:1383327)

◎编 剧 管虎 Hu Guan (id:1274919)

吴兵 Bing Wu (id:1317088)

张珂 Ke Zhang (id:1334235)

张子五 Ziwu Zhang (id:1456462)

京瑜 Jing Yu (id:1459680)

◎演 员 张颂文 Songwen Zhang (id:1314329)

李易峰 Yifeng Li (id:1314140)

佟丽娅 Liya Tong (id:1275756)

成泰燊 Taishen Cheng (id:1196361)

彭昱畅 Yuchang Peng (id:1354775)

李九霄 Jiuxiao Li (id:1330992)

韩庚 Geng Han (id:1275667)

梁静 Jing Liang (id:1274641)

马少骅 Shaohua Ma (id:1274966)

白客 White. K (id:1332932)

秦昊 Hao Qin (id:1274463)

于谦 Qian Yu (id:1274307)

孙浠伦 Xilun Sun (id:1384585)

章若楠 Ruonan Zhang (id:1397180)

辛云来 Yunlai Xin (id:1397178)

朱梓瑜 Ziyu Zhu (id:1426825)

张承 Cheng Zhang (id:1345392)

仇硕康 Shuokang Qiu (id:1399618)

管虎 Hu Guan (id:1274919)

梁静 Jing Liang (id:1274641)

曹晓北 Xiaobei Cao (id:1453465)

刘琼芳 Qiongfang Liu (id:1417977)

高伟喆 Weizhe Gao (id:1396065)

◎标 签 李大钊 / 爱国主义 / 红色主旋律 / 革命 / 历史 / 真实事件改编 / 2021 / 传记

◎简 介

1927年4月26日,距离李大钊被执行绞刑还有38小时。此时,我党各方力量仍在积极组织着对他的营救行动,而敌人也在千方百计对他施以酷刑,但依旧毫无进展。焦灼之时,一个年轻警察进入狱中欲对守常先生施以新刑,而关于守常先生一生的革命回忆,也就此拉开帷幕……

  1. ##### MediaInfo ######

  2. General

  3. Unique ID : 277371509527600180485946636502190126847 (0xD0ABCF416A5644E8AC1AD340F569F6FF)

  4. Complete name : The.Pioneer.2021.WEB-DL.4K.H265.AAC.5.1-10015@BBQDDQ.COM.mkv

  5. Format : Matroska

  6. Format version : Version 4

  7. File size : 11.4 GiB

  8. Duration : 2 h 0 min

  9. Overall bit rate : 13.5 Mb/s

  10. Encoded date : UTC 2021-08-08 06:18:36

  11. Writing application : mkvmerge v58.0.0 ('Supper's Ready') 64-bit

  12. Writing library : libebml v1.4.2 + libmatroska v1.6.4


  13. Video

  14. ID : 1

  15. Format : HEVC

  16. Format/Info : High Efficiency Video Coding

  17. Format profile : Main@L5@Main

  18. Codec ID : V_MPEGH/ISO/HEVC

  19. Duration : 2 h 0 min

  20. Bit rate : 13.2 Mb/s

  21. Width : 3 840 pixels

  22. Height : 1 608 pixels

  23. Display aspect ratio : 2.40:1

  24. Frame rate mode : Constant

  25. Frame rate : 24.000 FPS

  26. Color space : YUV

  27. Chroma subsampling : 4:2:0

  28. Bit depth : 8 bits

  29. Bits/(Pixel*Frame) : 0.089

  30. Stream size : 11.1 GiB (98%)

  31. Default : Yes

  32. Forced : No


  33. Audio #1

  34. ID : 2

  35. Format : AAC LC SBR

  36. Format/Info : Advanced Audio Codec Low Complexity with Spectral Band Replication

  37. Commercial name : HE-AAC

  38. Format settings : NBC

  39. Codec ID : A_AAC-5

  40. Duration : 2 h 0 min

  41. Bit rate : 132 kb/s

  42. Channel(s) : 6 channels

  43. Channel layout : C L R Ls Rs LFE

  44. Sampling rate : 48.0 kHz

  45. Frame rate : 23.438 FPS (2048 SPF)

  46. Compression mode : Lossy

  47. Stream size : 113 MiB (1%)

  48. Default : Yes

  49. Forced : No


  50. Audio #2

  51. ID : 3

  52. Format : AAC LC

  53. Format/Info : Advanced Audio Codec Low Complexity

  54. Codec ID : A_AAC-2

  55. Duration : 2 h 0 min

  56. Bit rate : 192 kb/s

  57. Channel(s) : 2 channels

  58. Channel layout : L R

  59. Sampling rate : 44.1 kHz

  60. Frame rate : 43.066 FPS (1024 SPF)

  61. Compression mode : Lossy

  62. Stream size : 164 MiB (1%)

  63. Default : No

  64. Forced : No



文件下载


除非特别注明,本文『革命者.The.Pioneer.2021.WEB-DL.4K.H265.AAC.5.1 11.41GB』来源于互联网机器人自动抓取,非本站原创。 浮游电影网不对本文拥有版权,如有侵犯,请联系邮箱:fuyouu#yandex.com[#换成@]投诉。我们会在15个工作日内删除。 但烦请转载时请标明出处:“本文转载于『浮游电影网』,原文地址:https://www.fuyouu.com/13491.html

评论吧骚年!

发表你的见解   

昵称*

E-mail*(建议输入,以便收到博主回复的提示邮件)

验证码*

您可以使用eMule或eMule Mod(Windows)、aMule(Win、Linux、Mac)等软件下载eD2k链接。。
eMule收藏集(.emulecollection)文件是您选中的所有链接的列表文件。eMule可以直接下载它们。
按住SHIFT键选择可以选中多个选择框。
可用文件名和大小选择器来选择文件。
文件名选择器帮您根据文件名称或后缀来选择文件。不分大小写。
符号使用:
和:空格( )、+
不包含:-
或:|
转义:一对英文引号("");
匹配开头:^
匹配结尾:$
例如:
选中所有名称中包含有“eMule”或“0.49c”字眼,但不包含有“exe”字眼的:emule|0.49c -exe
选中所有名称的开头是“eMule”,结尾是“0.49c”的:^emule 0.49c$
选中所有名称中带有“eMule 0.49c”的(必须是“eMule 0.49c”,中间没有别的字符,不能是“eMule fake 0.49c”),需要转义:"emule 0.49c"
大小选择器帮您根据文件大小选择文件。