当前位置: 首页 >> 欧美电影 >> 皮囊之下[双语字幕].Under.the.Skin.2013.1080p.BluRay.DTS.x265-10bit 6.49GB >> 正文

皮囊之下[双语字幕].Under.the.Skin.2013.1080p.BluRay.DTS.x265-10bit 6.49GB

2021年08月10日 11:10:37     电影发布:来源于网络     电影分类:欧美电影     评论(0)    

皮囊之下[双语字幕].Under.the.Skin.2013.1080p.BluRay.DTS.x265 10bit 6.49GB 科幻片 恐怖片 欧美电影  第1张

◎译 名 皮囊之下 / 皮下之慌(港) / 肌肤之侵(台)

◎片 名 Under the Skin

◎年 代 2013

◎产 地 英国 / 美国 / 瑞士

◎类 别 科幻 / 恐怖

◎语 言 英语

◎上映日期 2013-09-03(威尼斯电影节) / 2014-03-14(英国)

◎IMDb链接 https://www.imdb.com/title/tt1441395/

◎豆瓣评分 6.3/10 (39502人评价)

◎豆瓣链接 https://movie.douban.com/subject/3749974/

◎片 长 107分钟

◎导 演 乔纳森·格雷泽 Jonathan Glazer (id:1275047)

◎编 剧 瓦尔特·坎贝尔 Walter Campbell (id:1341020)

米歇尔·法贝尔 Michel Faber (id:1320684)

乔纳森·格雷泽 Jonathan Glazer (id:1275047)

◎演 员 斯嘉丽·约翰逊 Scarlett Johansson (id:1054453)

杰里米·麦克威廉姆斯 Jeremy McWilliams (id:1341021)

琳西·泰勒·麦凯 Lynsey Taylor Mackay (id:1341022)

道基·麦康奈尔 Dougie McConnell (id:1341023)

凯文·麦卡林登 Kevin McAlinden (id:1341024)

克里斯托弗·哈德克 Krystof Hádek (id:1032916)

安东尼娅·坎贝尔-休斯 Antonia Campbell-Hughes (id:1334502)

保罗·布兰尼根 Paul Brannigan (id:1327859)

亚当·皮尔森 Adam Pearson (id:1432791)

麦卡·利维 Mica Levi (id:1344676)

丹尼尔·兰丁 Daniel Landin (id:1353321)

◎标 签 科幻 / 英国 / 惊悚 / 美国 / 2013 / 悬疑 / 文艺 / 剧情

◎简 介

不知从何时起,萧索的苏格兰街头出现了一个神秘女子(斯嘉丽·约翰逊 Scarlett Johansson 饰),她身着皮草,驾驶一辆汽车,不苟言笑的面庞隐约间弥散着摄人魅力。她时不时地与路边的男人搭讪,向他们问路,间或载着相中的男人同归。她走向黑暗的劲头,被欲望支配的男人们紧随其后,却全然未能觉察自己步入了怎样的深渊。男人有如飞蛾扑火,被抽取了骨血,只剩空空皮囊,薄如蝉翼。直到某个晚上,女人搭载了一个相貌极其丑陋的男子。他宛如怪物一般,自知丑陋而深深隐藏自己。女人如往常一样接纳了他,而从第二天起,似乎女人发现自己在悄悄发生着变化。她发现了这幅皮囊的可欣赏之处,享受作为女人的乐趣,却几乎忘记了本来的面目……

本片根据米歇尔·法贝尔(Michel Faber)的小说改编。

◎获奖情况 (共21项)

第70届威尼斯电影节 (2013)

金狮奖(提名)

└──乔纳森·格雷泽 (id:1275047)

第27届欧洲电影奖 (2014)

最佳配乐

└──麦卡·利维 (id:1344676)

第57届伦敦电影节 (2013)

最佳影片(提名)

└──乔纳森·格雷泽 (id:1275047)

第30届美国独立精神奖 (2015)

最佳国际电影(提名)

└──乔纳森·格雷泽 (id:1275047)

第16届英国独立电影奖 (2013)

最佳导演(提名)

└──乔纳森·格雷泽 (id:1275047)

最佳女主角(提名)

└──斯嘉丽·约翰逊 (id:1054453)

技术成就奖(提名)

第24届哥谭独立电影奖 (2014)

最佳影片(提名)

最佳女演员(提名)

└──斯嘉丽·约翰逊 (id:1054453)

第13届华盛顿影评人协会奖 (2014)

最佳女主角(提名)

└──斯嘉丽·约翰逊 (id:1054453)

最佳摄影(提名)

└──丹尼尔·兰丁 (id:1353321)

最佳原创配乐

└──麦卡·利维 (id:1344676)

第40届洛杉矶影评人协会奖 (2014)

最佳配乐(提名)

└──麦卡·利维 (id:1344676)

第27届芝加哥影评人协会奖 (2014)

最佳影片(提名)

最佳女主角(提名)

└──斯嘉丽·约翰逊 (id:1054453)

最佳改编剧本(提名)

最佳原创配乐

└──麦卡·利维 (id:1344676)

第18届美国在线影评人协会奖 (2014)

最佳影片(提名)

最佳导演(提名)

└──乔纳森·格雷泽 (id:1275047)

最佳改编剧本(提名)

最佳摄影(提名)

└──丹尼尔·兰丁 (id:1353321)

  1. ##### MediaInfo ######

  2. General

  3. Unique ID : 186000540430482668800694926023852371867 (0x8BEE66AB2120D805714DEABB40E52F9B)

  4. Complete name : Under.the.Skin.2013.1080p.BluRay.DTS.x265-10bit-10007@BBQDDQ.COM.mkv

  5. Format : Matroska

  6. Format version : Version 4

  7. File size : 6.49 GiB

  8. Duration : 1 h 48 min

  9. Overall bit rate : 8 581 kb/s

  10. Movie name : Under the Skin 2013 1080p BluRay DTS x265-10bit-10007@BBQDDQ.COM

  11. Encoded date : UTC 2021-08-08 14:35:48

  12. Writing application : mkvmerge v38.0.0 ('The Silent Type') 64-bit

  13. Writing library : libebml v1.3.9 + libmatroska v1.5.2


  14. Video

  15. ID : 1

  16. Format : HEVC

  17. Format/Info : High Efficiency Video Coding

  18. Format profile : Main 10@L5.1@High

  19. Codec ID : V_MPEGH/ISO/HEVC

  20. Duration : 1 h 48 min

  21. Bit rate : 7 054 kb/s

  22. Width : 1 920 pixels

  23. Height : 1 036 pixels

  24. Display aspect ratio : 1.85:1

  25. Frame rate mode : Constant

  26. Frame rate : 23.976 (24000/1001/53354) FPS

  27. Color space : YUV

  28. Chroma subsampling : 4:2:0

  29. Bit depth : 10 bits

  30. Bits/(Pixel*Frame) : 0.148

  31. Stream size : 5.33 GiB (82%)

  32. Title : @HDSky

  33. Writing library : x265 - H.265/HEVC codec

  34. Default : Yes

  35. Forced : No


  36. Audio

  37. ID : 2

  38. Format : DTS

  39. Format/Info : Digital Theater Systems

  40. Codec ID : A_DTS

  41. Duration : 1 h 48 min

  42. Bit rate mode : Constant

  43. Bit rate : 1 509 kb/s

  44. Channel(s) : 6 channels

  45. Channel layout : C L R Ls Rs LFE

  46. Sampling rate : 48.0 kHz

  47. Frame rate : 93.750 FPS (512 SPF)

  48. Bit depth : 24 bits

  49. Compression mode : Lossy

  50. Stream size : 1.14 GiB (18%)

  51. Title : English

  52. Language : English

  53. Default : Yes

  54. Forced : No


  55. Text #1

  56. ID : 3

  57. Format : PGS

  58. Muxing mode : zlib

  59. Codec ID : S_HDMV/PGS

  60. Codec ID/Info : Picture based subtitle format used on BDs/HD-DVDs

  61. Duration : 1 h 37 min

  62. Bit rate : 7 708 b/s

  63. Count of elements : 646

  64. Stream size : 5.38 MiB (0%)

  65. Title : CHS

  66. Language : Chinese

  67. Default : Yes

  68. Forced : No


  69. Text #2

  70. ID : 4

  71. Format : PGS

  72. Muxing mode : zlib

  73. Codec ID : S_HDMV/PGS

  74. Codec ID/Info : Picture based subtitle format used on BDs/HD-DVDs

  75. Duration : 1 h 37 min

  76. Bit rate : 7 869 b/s

  77. Count of elements : 646

  78. Stream size : 5.49 MiB (0%)

  79. Title : CHT

  80. Language : Chinese

  81. Default : No

  82. Forced : No


  83. Text #3

  84. ID : 5

  85. Format : PGS

  86. Muxing mode : zlib

  87. Codec ID : S_HDMV/PGS

  88. Codec ID/Info : Picture based subtitle format used on BDs/HD-DVDs

  89. Duration : 1 h 26 min

  90. Bit rate : 9 494 b/s

  91. Count of elements : 422

  92. Stream size : 5.89 MiB (0%)

  93. Title : CHS&ENG

  94. Language : Chinese

  95. Default : No

  96. Forced : No


  97. Text #4

  98. ID : 6

  99. Format : PGS

  100. Muxing mode : zlib

  101. Codec ID : S_HDMV/PGS

  102. Codec ID/Info : Picture based subtitle format used on BDs/HD-DVDs

  103. Duration : 1 h 26 min

  104. Bit rate : 9 693 b/s

  105. Count of elements : 422

  106. Stream size : 6.01 MiB (0%)

  107. Title : CHT&ENG

  108. Language : Chinese

  109. Default : No

  110. Forced : No


  111. Menu

  112. 00:00:00.000 : en:Chapter 01

  113. 00:09:06.713 : en:Chapter 02

  114. 00:21:39.423 : en:Chapter 03

  115. 00:29:40.946 : en:Chapter 04

  116. 00:38:45.573 : en:Chapter 05

  117. 00:48:02.922 : en:Chapter 06

  118. 01:00:01.807 : en:Chapter 07

  119. 01:09:22.950 : en:Chapter 08

  120. 01:22:18.600 : en:Chapter 09

  121. 01:33:21.930 : en:Chapter 10

  122. 01:42:27.641 : en:Chapter 11



文件下载


除非特别注明,本文『皮囊之下[双语字幕].Under.the.Skin.2013.1080p.BluRay.DTS.x265-10bit 6.49GB』来源于互联网机器人自动抓取,非本站原创。 浮游电影网不对本文拥有版权,如有侵犯,请联系邮箱:fuyouu#yandex.com[#换成@]投诉。我们会在15个工作日内删除。 但烦请转载时请标明出处:“本文转载于『浮游电影网』,原文地址:https://5.189.174.242/13488.html

评论吧骚年!

发表你的见解   

昵称*

E-mail*(建议输入,以便收到博主回复的提示邮件)

验证码*

您可以使用eMule或eMule Mod(Windows)、aMule(Win、Linux、Mac)等软件下载eD2k链接。。
eMule收藏集(.emulecollection)文件是您选中的所有链接的列表文件。eMule可以直接下载它们。
按住SHIFT键选择可以选中多个选择框。
可用文件名和大小选择器来选择文件。
文件名选择器帮您根据文件名称或后缀来选择文件。不分大小写。
符号使用:
和:空格( )、+
不包含:-
或:|
转义:一对英文引号("");
匹配开头:^
匹配结尾:$
例如:
选中所有名称中包含有“eMule”或“0.49c”字眼,但不包含有“exe”字眼的:emule|0.49c -exe
选中所有名称的开头是“eMule”,结尾是“0.49c”的:^emule 0.49c$
选中所有名称中带有“eMule 0.49c”的(必须是“eMule 0.49c”,中间没有别的字符,不能是“eMule fake 0.49c”),需要转义:"emule 0.49c"
大小选择器帮您根据文件大小选择文件。