当前位置: 首页 >> 动画电影 >> 夏日友晴天[国英多音轨/中文字幕].Luca.2021.2160p.HDR.UHD.BluRay.TrueHD.7.1.Atmos.x265-10bit 14.75GB >> 正文

夏日友晴天[国英多音轨/中文字幕].Luca.2021.2160p.HDR.UHD.BluRay.TrueHD.7.1.Atmos.x265-10bit 14.75GB

2021年08月08日 08:56:40     电影发布:来源于网络     电影分类:动画电影     评论(0)    

夏日友晴天[国英多音轨/中文字幕].Luca.2021.2160p.HDR.UHD.BluRay.TrueHD.7.1.Atmos.x265 10bit 14.75GB 动画片 奇幻片 冒险片 喜剧片 动画电影  第1张

◎译 名 夏日友晴天 / 盛夏友晴天(港) / 路卡的夏天(台) / 卢卡

◎片 名 Luca

◎年 代 2021

◎产 地 美国

◎类 别 喜剧 / 动画 / 奇幻 / 冒险

◎语 言 英语 / 意大利语

◎上映日期 2021-07(中国大陆) / 2021-06-18(美国网络)

◎IMDb链接 https://www.imdb.com/title/tt12801262/

◎豆瓣评分 7.3/10 (19334人评价)

◎豆瓣链接 https://movie.douban.com/subject/35161768/

◎片 长 95分钟

◎导 演 埃里康·卡萨罗萨 Enrico Casarosa (id:1320935)

◎编 剧 埃里康·卡萨罗萨 Enrico Casarosa (id:1320935)

杰西·安德鲁斯 Jesse Andrews (id:1348082)

Simon Stephenson Simon Stephenson (id:1458701)

麦克·琼斯 Mike Jones (id:1440274)

Julie Lynn Julie Lynn (id:1290527)

兰达尔·格林 Randall Green (id:1416865)

◎演 员 雅各布·特伦布莱 Jacob Tremblay (id:1332866)

杰克·迪伦·格雷泽 Jack Dylan Grazer (id:1380979)

艾玛·伯曼 Emma Berman (id:1458960)

萨维里奥·雷蒙多 Saverio Raimondo (id:1458961)

玛娅·鲁道夫 Maya Rudolph (id:1025183)

萨莎·拜伦·科恩 Sacha Baron Cohen (id:1027161)

马可·巴里切利 Marco Barricelli (id:1458962)

吉姆·加菲根 Jim Gaffigan (id:1009467)

彼得·孙 Peter Sohn (id:1298008)

洛伦佐·克里斯奇 Lorenzo Crisci (id:1458963)

玛丽娜·马西罗尼 Marina Massironi (id:1121897)

吉诺·拉·莫妮卡 Gino La Monica (id:1106936)

桑迪·马丁 Sandy Martin (id:1389480)

嘉科莫·吉安尼欧缇 Giacomo Gianniotti (id:1339672)

艾莉莎·加布瑞利 Elisa Gabrielli (id:1458964)

咪咪·梅纳德 Mimi Maynard (id:1445999)

埃里康·卡萨罗萨 Enrico Casarosa (id:1320935)

吉姆·皮里 Jim Pirri (id:1314311)

Gino D'Acampo Gino D'Acampo (id:1212394)

德雷克·贝尔 Drake Bell (id:1009318)

约翰·拉岑贝格 John Ratzenberger (id:1002680)

乔纳森·尼科尔斯 Jonathan Nichols (id:1459012)

丹·罗莫 Dan Romer (id:1325664)

◎标 签 动画 / 皮克斯 / 迪士尼 / Pixar / 2021 / 美国 / 奇幻 / Disney

◎简 介

故事发生在意大利里维埃拉,讲述了一个小男孩卢卡(雅各布·特伦布莱 配音)在充满冰激凌、意大利面香气和摩托车骑行的夏天,经历的难忘成长之旅。卢卡与他新结交的好友(杰克·迪伦·格雷泽 配音)一起经历了这些冒险,但所有的乐趣都受到了一个深藏的秘密的威胁:他是一个来自海底世界的海怪。

  1. ##### MediaInfo ######

  2. General

  3. Unique ID : 13383503889231140606626847977643246372 (0xA1191AFE3B00B0AD374855DC8D10324)

  4. Complete name : Luca.2021.2160p.HDR.UHD.BluRay.TrueHD.7.1.Atmos.x265-10bit-10007@BBQDDQ.COM.mkv

  5. Format : Matroska

  6. Format version : Version 4

  7. File size : 14.8 GiB

  8. Duration : 1 h 35 min

  9. Overall bit rate mode : Variable

  10. Overall bit rate : 22.2 Mb/s

  11. Movie name : Luca - Ultra HD?

  12. Encoded date : UTC 2021-08-07 00:53:48

  13. Writing application : mkvmerge v44.0.0 ('Domino') 64-bit

  14. Writing library : libebml v1.3.10 + libmatroska v1.5.2

  15. Cover : Yes

  16. Attachments : cover.jpg


  17. Video

  18. ID : 1

  19. Format : HEVC

  20. Format/Info : High Efficiency Video Coding

  21. Format profile : Main 10@L5.1@High

  22. HDR format : SMPTE ST 2086, HDR10 compatible

  23. Codec ID : V_MPEGH/ISO/HEVC

  24. Duration : 1 h 35 min

  25. Bit rate : 13.8 Mb/s

  26. Width : 3 840 pixels

  27. Height : 2 072 pixels

  28. Display aspect ratio : 1.85:1

  29. Frame rate mode : Constant

  30. Frame rate : 23.976 (24000/1001/53354) FPS

  31. Color space : YUV

  32. Chroma subsampling : 4:2:0

  33. Bit depth : 10 bits

  34. Bits/(Pixel*Frame) : 0.072

  35. Stream size : 9.19 GiB (62%)

  36. Title : @HDSky

  37. Writing library : x265 - H.265/HEVC codec

  38. Default : Yes

  39. Forced : No

  40. Color range : Limited

  41. Color primaries : BT.2020

  42. Transfer characteristics : PQ

  43. Matrix coefficients : BT.2020 non-constant

  44. Mastering display color primaries : BT.2020

  45. Mastering display luminance : min: 0.0020 cd/m2, max: 1000 cd/m2

  46. Maximum Content Light Level : 739 cd/m2

  47. Maximum Frame-Average Light Level : 331 cd/m2


  48. Audio #1

  49. ID : 2

  50. Format : MLP FBA 16-ch

  51. Format/Info : Meridian Lossless Packing FBA with 16-channel presentation

  52. Commercial name : Dolby TrueHD with Dolby Atmos

  53. Codec ID : A_TRUEHD

  54. Duration : 1 h 35 min

  55. Bit rate mode : Variable

  56. Bit rate : 6 051 kb/s

  57. Maximum bit rate : 5 985 kb/s

  58. Channel(s) : 8 channels

  59. Channel layout : L R C LFE Ls Rs Lb Rb

  60. Sampling rate : 48.0 kHz

  61. Frame rate : 1 200.000 FPS (40 SPF)

  62. Compression mode : Lossless

  63. Delay relative to video : 32 ms

  64. Stream size : 4.03 GiB (27%)

  65. Title : English

  66. Language : English

  67. Default : Yes

  68. Forced : No

  69. Number of dynamic objects : 13

  70. Bed channel count : 1 channel

  71. Bed channel configuration : LFE


  72. Audio #2

  73. ID : 3

  74. Format : DTS

  75. Format/Info : Digital Theater Systems

  76. Codec ID : A_DTS

  77. Duration : 1 h 35 min

  78. Bit rate mode : Constant

  79. Bit rate : 1 509 kb/s

  80. Channel(s) : 6 channels

  81. Channel layout : C L R Ls Rs LFE

  82. Sampling rate : 48.0 kHz

  83. Frame rate : 93.750 FPS (512 SPF)

  84. Bit depth : 24 bits

  85. Compression mode : Lossy

  86. Stream size : 1.00 GiB (7%)

  87. Title : Chinese

  88. Language : Chinese

  89. Default : No

  90. Forced : No


  91. Audio #3

  92. ID : 4

  93. Format : AC-3

  94. Format/Info : Audio Coding 3

  95. Commercial name : Dolby Digital

  96. Codec ID : A_AC3

  97. Duration : 1 h 35 min

  98. Bit rate mode : Constant

  99. Bit rate : 640 kb/s

  100. Channel(s) : 6 channels

  101. Channel layout : L R C LFE Ls Rs

  102. Sampling rate : 48.0 kHz

  103. Frame rate : 31.250 FPS (1536 SPF)

  104. Compression mode : Lossy

  105. Stream size : 436 MiB (3%)

  106. Title : Chinese

  107. Language : Chinese

  108. Service kind : Complete Main

  109. Default : No

  110. Forced : No


  111. Text #1

  112. ID : 5

  113. Format : PGS

  114. Muxing mode : zlib

  115. Codec ID : S_HDMV/PGS

  116. Codec ID/Info : Picture based subtitle format used on BDs/HD-DVDs

  117. Duration : 1 h 34 min

  118. Bit rate : 50.4 kb/s

  119. Count of elements : 3978

  120. Stream size : 34.0 MiB (0%)

  121. Title : ENG

  122. Language : English

  123. Default : Yes

  124. Forced : No


  125. Text #2

  126. ID : 6

  127. Format : PGS

  128. Muxing mode : zlib

  129. Codec ID : S_HDMV/PGS

  130. Codec ID/Info : Picture based subtitle format used on BDs/HD-DVDs

  131. Duration : 1 h 33 min

  132. Bit rate : 32.6 kb/s

  133. Count of elements : 2464

  134. Stream size : 21.8 MiB (0%)

  135. Title : CHS

  136. Language : Chinese

  137. Default : No

  138. Forced : No


  139. Text #3

  140. ID : 7

  141. Format : PGS

  142. Muxing mode : zlib

  143. Codec ID : S_HDMV/PGS

  144. Codec ID/Info : Picture based subtitle format used on BDs/HD-DVDs

  145. Duration : 1 h 33 min

  146. Bit rate : 33.0 kb/s

  147. Count of elements : 2464

  148. Stream size : 22.0 MiB (0%)

  149. Title : CHT

  150. Language : Chinese

  151. Default : No

  152. Forced : No


  153. Text #4

  154. ID : 8

  155. Format : PGS

  156. Muxing mode : zlib

  157. Codec ID : S_HDMV/PGS

  158. Codec ID/Info : Picture based subtitle format used on BDs/HD-DVDs

  159. Duration : 1 h 33 min

  160. Bit rate : 34.7 kb/s

  161. Count of elements : 2636

  162. Stream size : 23.2 MiB (0%)

  163. Title : CHS

  164. Language : Chinese

  165. Default : No

  166. Forced : No


  167. Text #5

  168. ID : 9

  169. Format : PGS

  170. Muxing mode : zlib

  171. Codec ID : S_HDMV/PGS

  172. Codec ID/Info : Picture based subtitle format used on BDs/HD-DVDs

  173. Duration : 1 h 33 min

  174. Bit rate : 27.6 kb/s

  175. Count of elements : 2605

  176. Stream size : 18.5 MiB (0%)

  177. Title : CHT

  178. Language : Chinese

  179. Default : No

  180. Forced : No


  181. Menu

  182. 00:00:00.000 : en:第 01 章

  183. 00:02:27.897 : en:第 02 章

  184. 00:06:27.220 : en:第 03 章

  185. 00:08:29.884 : en:第 04 章

  186. 00:11:19.512 : en:第 05 章

  187. 00:14:35.291 : en:第 06 章

  188. 00:16:30.197 : en:第 07 章

  189. 00:17:07.734 : en:第 08 章

  190. 00:21:19.486 : en:第 09 章

  191. 00:23:31.993 : en:第 10 章

  192. 00:26:01.393 : en:第 11 章

  193. 00:28:11.815 : en:第 12 章

  194. 00:32:55.515 : en:第 13 章

  195. 00:35:39.970 : en:第 14 章

  196. 00:37:29.371 : en:第 15 章

  197. 00:41:38.203 : en:第 16 章

  198. 00:42:25.876 : en:第 17 章

  199. 00:45:04.117 : en:第 18 章

  200. 00:46:06.680 : en:第 19 章

  201. 00:48:53.638 : en:第 20 章

  202. 00:51:00.098 : en:第 21 章

  203. 00:52:04.746 : en:第 22 章

  204. 00:54:33.561 : en:第 23 章

  205. 00:56:18.833 : en:第 24 章

  206. 00:58:30.339 : en:第 25 章

  207. 01:00:07.519 : en:第 26 章

  208. 01:00:43.597 : en:第 27 章

  209. 01:02:10.059 : en:第 28 章

  210. 01:04:51.929 : en:第 29 章

  211. 01:06:49.087 : en:第 30 章

  212. 01:09:33.835 : en:第 31 章

  213. 01:13:19.978 : en:第 32 章

  214. 01:16:47.477 : en:第 33 章

  215. 01:19:33.476 : en:第 34 章

  216. 01:20:53.722 : en:第 35 章

  217. 01:24:34.943 : en:第 36 章

  218. 01:33:41.531 : en:第 37 章



文件下载


除非特别注明,本文『夏日友晴天[国英多音轨/中文字幕].Luca.2021.2160p.HDR.UHD.BluRay.TrueHD.7.1.Atmos.x265-10bit 14.75GB』来源于互联网机器人自动抓取,非本站原创。 浮游电影网不对本文拥有版权,如有侵犯,请联系邮箱:fuyouu#yandex.com[#换成@]投诉。我们会在15个工作日内删除。 但烦请转载时请标明出处:“本文转载于『浮游电影网』,原文地址:https://www.fuyouu.com/13457.html

评论吧骚年!

发表你的见解   

昵称*

E-mail*(建议输入,以便收到博主回复的提示邮件)

验证码*

您可以使用eMule或eMule Mod(Windows)、aMule(Win、Linux、Mac)等软件下载eD2k链接。。
eMule收藏集(.emulecollection)文件是您选中的所有链接的列表文件。eMule可以直接下载它们。
按住SHIFT键选择可以选中多个选择框。
可用文件名和大小选择器来选择文件。
文件名选择器帮您根据文件名称或后缀来选择文件。不分大小写。
符号使用:
和:空格( )、+
不包含:-
或:|
转义:一对英文引号("");
匹配开头:^
匹配结尾:$
例如:
选中所有名称中包含有“eMule”或“0.49c”字眼,但不包含有“exe”字眼的:emule|0.49c -exe
选中所有名称的开头是“eMule”,结尾是“0.49c”的:^emule 0.49c$
选中所有名称中带有“eMule 0.49c”的(必须是“eMule 0.49c”,中间没有别的字符,不能是“eMule fake 0.49c”),需要转义:"emule 0.49c"
大小选择器帮您根据文件大小选择文件。