当前位置: 首页 >> 欧美电影 >> 第一滴血3[国英多音轨/简繁字幕].Rambo.3.1988.BluRay.1080p.2Audio.DTS-HD.MA.5.1.x265.10bit 9.87GB >> 正文

第一滴血3[国英多音轨/简繁字幕].Rambo.3.1988.BluRay.1080p.2Audio.DTS-HD.MA.5.1.x265.10bit 9.87GB

2021年08月07日 16:47:05     电影发布:来源于网络     电影分类:欧美电影     评论(0)    

第一滴血3[国英多音轨/简繁字幕].Rambo.3.1988.BluRay.1080p.2Audio.DTS HD.MA.5.1.x265.10bit 9.87GB 冒险片 动作片 欧美电影  第1张

◎译 名 第一滴血3 / 兰博3

◎片 名 Rambo III

◎年 代 1988

◎产 地 美国

◎类 别 动作 / 冒险

◎语 言 英语 / 俄语

◎上映日期 1988-05-25(美国)

◎IMDb链接 https://www.imdb.com/title/tt0095956/

◎豆瓣评分 7.6/10 (35794人评价)

◎豆瓣链接 https://movie.douban.com/subject/1300399/

◎片 长 102 分钟

◎导 演 彼得·麦克唐纳德 Peter MacDonald (id:1276344)

◎编 剧 大卫·莫瑞尔 David Morrell (id:1045577)

西尔维斯特·史泰龙 Sylvester Stallone (id:1047996)

谢尔登 莱提奇 Sheldon Lettich (id:1014453)

◎演 员 西尔维斯特·史泰龙 Sylvester Stallone (id:1047996)

理查德·克里纳 Richard Crenna (id:1036515)

马克德容 Marc de Jonge (id:1084540)

柯特伍德·史密斯 Kurtwood Smith (id:1010600)

塞森·加布埃 Sasson Gabai (id:1284365)

阿隆·阿布布尔 Alon Aboutboul (id:1054904)

Paul Dion Monte Paul Dion Monte (id:1122344)

Doudi Shoua Doudi Shoua (id:1297518)

约瑟夫·希洛赫 Joseph Shiloach (id:1297464)

R.T. Freeman (id:1252147)

安德鲁·G·瓦吉纳 Andrew G. Vajna (id:1023242)

巴茨·费特香斯 Buzz Feitshans (id:1283529)

马里奥·凯萨 Mario Kassar (id:1028144)

杰瑞·高德史密斯 Jerry Goldsmith (id:1007116)

Edward Warschilka Edward Warschilka (id:1034487)

O. Nicholas Brown O. Nicholas Brown (id:1020141)

Pier Luigi Basile Pier Luigi Basile (id:1278043)

本哈明·费勒南戴斯 Benjamín Fernández (id:1283598)

Adrian Gorton Adrian Gorton (id:1285219)

Richard La Motte Richard La Motte (id:1289182)

Donna Barrett Gilbert Donna Barrett Gilbert (id:1099208)

Jeff Goodwin Jeff Goodwin (id:1099950)

詹内托·德·罗西 Giannetto De Rossi (id:1023792)

Nikolas Korda Nikolas Korda (id:1276458)

Dennis Maguire Dennis Maguire (id:1290727)

恩斯特·戴 Ernest Day (id:1001401)

David Stump David Stump (id:1276361)

约翰·科茨 John Coats (id:1280929)

Tim Donahue Tim Donahue (id:1282562)

Joel Fletcher Joel Fletcher (id:1283856)

威廉·梅萨 William Mesa (id:1291905)

Jon Macht Jon Macht (id:1215180)

黄家达 Carter Wong (id:1002865)

◎标 签 动作 / 史泰龙 / 美国 / 战争 / 第一滴血 / 经典 / 美国电影 / 1988

◎简 介

历经无数战火与生死考验,孔武有力的豪情勇士约翰·兰博(西尔维斯特·史泰龙 Sylvester Stallone 饰)放下手中的杀人武器,在泰国过起了平静的修行生活。这一日,特劳特曼上校(理查德·克里纳 Richard Crenna饰)突然出现在他面前。此前不久,上校受命率部队前往阿富汗,协助当地的圣战勇士反抗苏联人的入侵。虽然照片中阿富汗平民饱受外敌侵略和蹂躏的情景触目惊心,但兰博还是拒绝了上校的邀请。某晚,特劳特曼的部队在执行任务途中遭到苏联军队的伏击,其本人也不幸沦为阶下囚。得知这一消息,兰博再也无法静观其变。浴血战士重披战甲,只身闯入充满凶险的阿富汗腹地,展开一场紧张纷呈的绝命营救……

本片获1989年金酸梅最差男主角奖。

  1. ##### MediaInfo ######

  2. General

  3. Unique ID : 182623075288748161811222223175418932623 (0x8963ECC7C8D0655A132EF48F70206D8F)

  4. Complete name : Rambo.3.1988.BluRay.1080p.2Audio.DTS-HD.MA.5.1.x265.10bit-10011@BBQDDQ.COM.mkv

  5. Format : Matroska

  6. Format version : Version 4

  7. File size : 9.87 GiB

  8. Duration : 1 h 41 min

  9. Overall bit rate mode : Variable

  10. Overall bit rate : 13.9 Mb/s

  11. Encoded date : UTC 2021-07-28 07:28:57

  12. Writing application : mkvmerge v49.0.0 ('Sick Of Losing Soulmates') 64-bit

  13. Writing library : libebml v1.4.0 + libmatroska v1.6.1


  14. Video

  15. ID : 1

  16. Format : HEVC

  17. Format/Info : High Efficiency Video Coding

  18. Format profile : Main 10@L5.1@High

  19. Codec ID : V_MPEGH/ISO/HEVC

  20. Duration : 1 h 41 min

  21. Bit rate : 11.3 Mb/s

  22. Width : 1 920 pixels

  23. Height : 816 pixels

  24. Display aspect ratio : 2.35:1

  25. Frame rate mode : Constant

  26. Frame rate : 23.976 (24000/1001/53354) FPS

  27. Color space : YUV

  28. Chroma subsampling : 4:2:0

  29. Bit depth : 10 bits

  30. Bits/(Pixel*Frame) : 0.300

  31. Stream size : 8.00 GiB (81%)

  32. Title : HEVC, x265Main10@L5.1@High, 24/1.001 fps @ 11261 kbps

  33. Writing library : x265 3.4+14-gd419c7152:[Windows][GCC 10.2.0][64 bit] 10bit

  34. Encoding settings : cpuid=533541111039 / frame-threads=4 / numa-pools=20 / wpp / pmode / pme / no-psnr / no-ssim / log-level=2 / input-csp=1 / input-res=1920x816 / interlace=0 / total-frames=146360 / level-idc=51 / high-tier=1 / uhd-bd=0 / ref=5 / no-allow-non-conformance / no-repeat-headers / annexb / no-aud / no-hrd / info / hash=0 / no-temporal-layers / open-gop / min-keyint=24 / keyint=240 / gop-lookahead=0 / bframes=6 / b-adapt=2 / b-pyramid / bframe-bias=0 / rc-lookahead=40 / lookahead-slices=0 / NTMzNTQ=uuDQuD2mJt9fsCf / scenecut=40 / hist-scenecut=0 / radl=0 / no-splice / no-intra-refresh / ctu=32 / min-cu-size=8 / no-rect / no-amp / max-tu-size=32 / tu-inter-depth=3 / tu-intra-depth=3 / limit-tu=4 / rdoq-level=2 / dynamic-rd=0.00 / no-ssim-rd / signhide / no-tskip / nr-intra=0 / nr-inter=0 / no-constrained-intra / no-strong-intra-smoothing / max-merge=4 / limit-refs=1 / limit-modes / me=3 / subme=4 / merange=25 / temporal-mvp / no-frame-dup / no-hme / weightp / weightb / no-analyze-src-pics / deblock=-3:-3 / no-sao / no-sao-non-deblock / rd=6 / selective-sao=0 / no-early-skip / rskip / no-fast-intra / no-tskip-fast / no-cu-lossless / b-intra / no-splitrd-skip / rdpenalty=0 / psy-rd=2.00 / psy-rdoq=1.00 / no-rd-refine / no-lossless / cbqpoffs=0 / crqpoffs=0 / rc=crf / crf=18.5 / qcomp=0.65 / qpstep=4 / stats-write=0 / stats-read=0 / vbv-maxrate=80000 / vbv-bufsize=80000 / vbv-init=0.9 / crf-max=0.0 / crf-min=0.0 / ipratio=1.40 / pbratio=1.30 / aq-mode=2 / aq-strength=0.85 / cutree / zone-count=0 / no-strict-cbr / qg-size=32 / no-rc-grain / qpmax=69 / qpmin=0 / no-const-vbv / sar=1 / overscan=0 / videoformat=5 / range=0 / colorprim=1 / transfer=1 / colormatrix=1 / chromaloc=0 / display-window=0 / cll=0,0 / min-luma=0 / max-luma=1023 / log2-max-poc-lsb=8 / vui-timing-info / vui-hrd-info / slices=1 / no-opt-qp-pps / no-opt-ref-list-length-pps / no-multi-pass-opt-rps / scenecut-bias=0.05 / hist-threshold=0.03 / no-opt-cu-delta-qp / no-aq-motion / no-hdr10 / no-hdr10-opt / no-dhdr10-opt / no-idr-recovery-sei / analysis-reuse-level=0 / analysis-save-reuse-level=0 / analysis-load-reuse-level=0 / scale-factor=0 / refine-intra=0 / refine-inter=0 / refine-mv=1 / refine-ctu-distortion=0 / no-limit-sao / ctu-info=0 / no-lowpass-dct / refine-analysis-type=0 / copy-pic=1 / max-ausize-factor=1.0 / no-dynamic-refine / no-single-sei / no-hevc-aq / no-svt / no-field / qp-adaptation-range=1.00 / no-scenecut-aware-qpconformance-window-offsets / right=0 / bottom=0 / NTMzNTQ= / decoder-max-rate=0

  35. Language : English

  36. Default : Yes

  37. Forced : No

  38. Color range : Limited

  39. Color primaries : BT.709

  40. Transfer characteristics : BT.709

  41. Matrix coefficients : BT.709


  42. Audio #1

  43. ID : 2

  44. Format : DTS XLL

  45. Format/Info : Digital Theater Systems

  46. Commercial name : DTS-HD Master Audio

  47. Codec ID : A_DTS

  48. Duration : 1 h 41 min

  49. Bit rate mode : Variable

  50. Bit rate : 2 189 kb/s

  51. Channel(s) : 6 channels

  52. Channel layout : C L R Ls Rs LFE

  53. Sampling rate : 48.0 kHz

  54. Frame rate : 93.750 FPS (512 SPF)

  55. Bit depth : 16 bits

  56. Compression mode : Lossless

  57. Stream size : 1.55 GiB (16%)

  58. Title : English DTS-HD Master Audio 5.1 @ 2187 kbps

  59. Language : English

  60. Default : Yes

  61. Forced : No


  62. Audio #2

  63. ID : 3

  64. Format : AC-3

  65. Format/Info : Audio Coding 3

  66. Commercial name : Dolby Digital

  67. Codec ID : A_AC3

  68. Duration : 1 h 41 min

  69. Bit rate mode : Constant

  70. Bit rate : 192 kb/s

  71. Channel(s) : 2 channels

  72. Channel layout : L R

  73. Sampling rate : 48.0 kHz

  74. Frame rate : 31.250 FPS (1536 SPF)

  75. Compression mode : Lossy

  76. Stream size : 140 MiB (1%)

  77. Title : Mandarin Dolby Digital Audio 2.0 @ 192 kbps

  78. Language : Chinese

  79. Service kind : Complete Main

  80. Default : No

  81. Forced : No


  82. Audio #3

  83. ID : 4

  84. Format : AC-3

  85. Format/Info : Audio Coding 3

  86. Commercial name : Dolby Digital

  87. Codec ID : A_AC3

  88. Duration : 1 h 41 min

  89. Bit rate mode : Constant

  90. Bit rate : 192 kb/s

  91. Channel(s) : 2 channels

  92. Channel layout : L R

  93. Sampling rate : 48.0 kHz

  94. Frame rate : 31.250 FPS (1536 SPF)

  95. Compression mode : Lossy

  96. Stream size : 140 MiB (1%)

  97. Title : English Dolby Digital Audio 2.0 @ 192 kbps Commentary

  98. Language : English

  99. Service kind : Complete Main

  100. Default : No

  101. Forced : No


  102. Text #1

  103. ID : 5

  104. Format : PGS

  105. Codec ID : S_HDMV/PGS

  106. Codec ID/Info : Picture based subtitle format used on BDs/HD-DVDs

  107. Duration : 1 h 34 min

  108. Bit rate : 14.0 kb/s

  109. Count of elements : 940

  110. Stream size : 9.42 MiB (0%)

  111. Title : Eng/SUP

  112. Language : English

  113. Default : No

  114. Forced : No


  115. Text #2

  116. ID : 6

  117. Format : PGS

  118. Codec ID : S_HDMV/PGS

  119. Codec ID/Info : Picture based subtitle format used on BDs/HD-DVDs

  120. Duration : 1 h 36 min

  121. Bit rate : 21.7 kb/s

  122. Count of elements : 1734

  123. Stream size : 15.0 MiB (0%)

  124. Title : Chs/SUP 简体

  125. Language : Chinese

  126. Default : Yes

  127. Forced : No


  128. Text #3

  129. ID : 7

  130. Format : PGS

  131. Codec ID : S_HDMV/PGS

  132. Codec ID/Info : Picture based subtitle format used on BDs/HD-DVDs

  133. Duration : 1 h 36 min

  134. Bit rate : 22.5 kb/s

  135. Count of elements : 1734

  136. Stream size : 15.5 MiB (0%)

  137. Title : Cht/SUP 繁体

  138. Language : Chinese

  139. Default : No

  140. Forced : No


  141. Menu

  142. 00:00:00.000 : en:第 01 章

  143. 00:07:19.522 : en:第 02 章

  144. 00:14:30.870 : en:第 03 章

  145. 00:22:07.952 : en:第 04 章

  146. 00:27:56.216 : en:第 05 章

  147. 00:36:20.470 : en:第 06 章

  148. 00:42:00.017 : en:第 07 章

  149. 00:48:49.718 : en:第 08 章

  150. 00:55:52.683 : en:第 09 章

  151. 01:02:10.101 : en:第 10 章

  152. 01:09:55.274 : en:第 11 章

  153. 01:14:44.271 : en:第 12 章

  154. 01:19:48.659 : en:第 13 章

  155. 01:26:27.432 : en:第 14 章

  156. 01:33:52.752 : en:第 15 章

  157. 01:36:21.901 : en:第 16 章



文件下载


除非特别注明,本文『第一滴血3[国英多音轨/简繁字幕].Rambo.3.1988.BluRay.1080p.2Audio.DTS-HD.MA.5.1.x265.10bit 9.87GB』来源于互联网机器人自动抓取,非本站原创。 浮游电影网不对本文拥有版权,如有侵犯,请联系邮箱:fuyouu#yandex.com[#换成@]投诉。我们会在15个工作日内删除。 但烦请转载时请标明出处:“本文转载于『浮游电影网』,原文地址:https://www.fuyouu.com/13448.html

评论吧骚年!

发表你的见解   

昵称*

E-mail*(建议输入,以便收到博主回复的提示邮件)

验证码*

您可以使用eMule或eMule Mod(Windows)、aMule(Win、Linux、Mac)等软件下载eD2k链接。。
eMule收藏集(.emulecollection)文件是您选中的所有链接的列表文件。eMule可以直接下载它们。
按住SHIFT键选择可以选中多个选择框。
可用文件名和大小选择器来选择文件。
文件名选择器帮您根据文件名称或后缀来选择文件。不分大小写。
符号使用:
和:空格( )、+
不包含:-
或:|
转义:一对英文引号("");
匹配开头:^
匹配结尾:$
例如:
选中所有名称中包含有“eMule”或“0.49c”字眼,但不包含有“exe”字眼的:emule|0.49c -exe
选中所有名称的开头是“eMule”,结尾是“0.49c”的:^emule 0.49c$
选中所有名称中带有“eMule 0.49c”的(必须是“eMule 0.49c”,中间没有别的字符,不能是“eMule fake 0.49c”),需要转义:"emule 0.49c"
大小选择器帮您根据文件大小选择文件。