当前位置: 首页 >> 欧美电影 >> 第一滴血[国英多音轨/简繁字幕].First.Blood.1982.BluRay.1080p.2Audio.DTS-HD.MA.5.1.x265.10bit 8.08GB >> 正文

第一滴血[国英多音轨/简繁字幕].First.Blood.1982.BluRay.1080p.2Audio.DTS-HD.MA.5.1.x265.10bit 8.08GB

2021年08月07日 16:42:59     电影发布:来源于网络     电影分类:欧美电影     评论(0)    

第一滴血[国英多音轨/简繁字幕].First.Blood.1982.BluRay.1080p.2Audio.DTS HD.MA.5.1.x265.10bit 8.08GB 冒险片 动作片 剧情片 欧美电影  第1张

◎译 名 第一滴血 / 兰博 / Rambo: First Blood

◎片 名 First Blood

◎年 代 1982

◎产 地 美国

◎类 别 剧情 / 动作 / 冒险

◎语 言 英语

◎上映日期 1982-10-22

◎IMDb链接 https://www.imdb.com/title/tt0083944/

◎豆瓣评分 8.3/10 (77843人评价)

◎豆瓣链接 https://movie.douban.com/subject/1294323/

◎片 长 93 分钟

◎导 演 特德·科特切夫 Ted Kotcheff (id:1000507)

◎编 剧 西尔维斯特·史泰龙 Sylvester Stallone (id:1047996)

迈克尔·科佐尔 Michael Kozoll (id:1288965)

◎演 员 西尔维斯特·史泰龙 Sylvester Stallone (id:1047996)

理查德·克里纳 Richard Crenna (id:1036515)

布莱恩·丹内利 Brian Dennehy (id:1013729)

比尔·麦金尼 Bill McKinney (id:1115045)

杰克·斯塔雷特 Jack Starrett (id:1041333)

Craig Huston Craig Huston (id:1287206)

查尔斯·A·坦伯罗 Charles A. Tamburro (id:1298880)

巴茨·费特香斯 Buzz Feitshans (id:1283529)

沃尔夫·克罗伊格 Wolf Kroeger (id:1289046)

Craig Huston Craig Huston (id:1287206)

汤姆·诺伯 Thom Noble (id:1293221)

◎标 签 动作 / 史泰龙 / 美国 / 经典 / 第一滴血 / 战争 / 美国电影 / 1982

◎简 介

退伍军人兰博(西尔维斯特?史泰龙Sylvester Stallone 饰)从越南回国,他回到已显得陌生的原居小镇,当地警长(布莱恩?丹内利 Brian Dennehy 饰)看到这个退伍军人的第一眼起,就开始对兰博百般挑剔,甚至将他带回警局肆意侮辱,不堪忍受责打的兰博袭警之后逃跑。警长召集大批警察展开对兰博的追捕,兰博逃至荒山野林之中,不断用自己在越战中掌握的游击战术对警察展开反击,他抢劫了一辆武器运输车返回小镇烧毁了商店,法律和武器都不能阻止兰博了。兰博在越战时的长官上校(理查德?克里纳 Richard Crenna 饰)出现,劝说兰博放下枪械,愤懑已久的兰博吼出了自己的困惑与不甘……

  1. ##### MediaInfo ######

  2. General

  3. Unique ID : 98730237392521798501069451335627882670 (0x4A46C087130C04E5D81C2762E3BAC0AE)

  4. Complete name : First.Blood.1982.BluRay.1080p.2Audio.DTS-HD.MA.5.1.x265.10bit-10011@BBQDDQ.COM.mkv

  5. Format : Matroska

  6. Format version : Version 4

  7. File size : 8.08 GiB

  8. Duration : 1 h 33 min

  9. Overall bit rate mode : Variable

  10. Overall bit rate : 12.4 Mb/s

  11. Encoded date : UTC 2021-07-28 07:27:44

  12. Writing application : mkvmerge v49.0.0 ('Sick Of Losing Soulmates') 64-bit

  13. Writing library : libebml v1.4.0 + libmatroska v1.6.1


  14. Video

  15. ID : 1

  16. Format : HEVC

  17. Format/Info : High Efficiency Video Coding

  18. Format profile : Main 10@L5.1@High

  19. Codec ID : V_MPEGH/ISO/HEVC

  20. Duration : 1 h 33 min

  21. Bit rate : 9 628 kb/s

  22. Width : 1 920 pixels

  23. Height : 818 pixels

  24. Display aspect ratio : 2.35:1

  25. Frame rate mode : Constant

  26. Frame rate : 23.976 (24000/1001/53354) FPS

  27. Color space : YUV

  28. Chroma subsampling : 4:2:0

  29. Bit depth : 10 bits

  30. Bits/(Pixel*Frame) : 0.256

  31. Stream size : 6.27 GiB (78%)

  32. Title : HEVC, x265Main10@L5.1@High, 24/1.001 fps @ 9628 kbps

  33. Writing library : x265 3.4+14-gd419c7152:[Windows][GCC 10.2.0][64 bit] 10bit

  34. Encoding settings : cpuid=533541111039 / frame-threads=4 / numa-pools=20 / wpp / pmode / pme / no-psnr / no-ssim / log-level=2 / input-csp=1 / input-res=1920x818 / interlace=0 / total-frames=134180 / level-idc=51 / high-tier=1 / uhd-bd=0 / ref=5 / no-allow-non-conformance / no-repeat-headers / annexb / no-aud / no-hrd / info / hash=0 / no-temporal-layers / open-gop / min-keyint=24 / keyint=240 / gop-lookahead=0 / bframes=6 / b-adapt=2 / b-pyramid / bframe-bias=0 / rc-lookahead=40 / lookahead-slices=0 / NTMzNTQ=uuDQuD2mJt9fsCf / scenecut=40 / hist-scenecut=0 / radl=0 / no-splice / no-intra-refresh / ctu=32 / min-cu-size=8 / no-rect / no-amp / max-tu-size=32 / tu-inter-depth=3 / tu-intra-depth=3 / limit-tu=4 / rdoq-level=2 / dynamic-rd=0.00 / no-ssim-rd / signhide / no-tskip / nr-intra=0 / nr-inter=0 / no-constrained-intra / no-strong-intra-smoothing / max-merge=4 / limit-refs=1 / limit-modes / me=3 / subme=4 / merange=25 / temporal-mvp / no-frame-dup / no-hme / weightp / weightb / no-analyze-src-pics / deblock=-3:-3 / no-sao / no-sao-non-deblock / rd=6 / selective-sao=0 / no-early-skip / rskip / no-fast-intra / no-tskip-fast / no-cu-lossless / b-intra / no-splitrd-skip / rdpenalty=0 / psy-rd=2.00 / psy-rdoq=1.00 / no-rd-refine / no-lossless / cbqpoffs=0 / crqpoffs=0 / rc=crf / crf=18.5 / qcomp=0.65 / qpstep=4 / stats-write=0 / stats-read=0 / vbv-maxrate=80000 / vbv-bufsize=80000 / vbv-init=0.9 / crf-max=0.0 / crf-min=0.0 / ipratio=1.40 / pbratio=1.30 / aq-mode=2 / aq-strength=0.85 / cutree / zone-count=0 / no-strict-cbr / qg-size=32 / no-rc-grain / qpmax=69 / qpmin=0 / no-const-vbv / sar=1 / overscan=0 / videoformat=5 / range=0 / colorprim=1 / transfer=1 / colormatrix=1 / chromaloc=0 / display-window=0 / cll=0,0 / min-luma=0 / max-luma=1023 / log2-max-poc-lsb=8 / vui-timing-info / vui-hrd-info / slices=1 / no-opt-qp-pps / no-opt-ref-list-length-pps / no-multi-pass-opt-rps / scenecut-bias=0.05 / hist-threshold=0.03 / no-opt-cu-delta-qp / no-aq-motion / no-hdr10 / no-hdr10-opt / no-dhdr10-opt / no-idr-recovery-sei / analysis-reuse-level=0 / analysis-save-reuse-level=0 / analysis-load-reuse-level=0 / scale-factor=0 / refine-intra=0 / refine-inter=0 / refine-mv=1 / refine-ctu-distortion=0 / no-limit-sao / ctu-info=0 / no-lowpass-dct / refine-analysis-type=0 / copy-pic=1 / max-ausize-factor=1.0 / no-dynamic-refine / no-single-sei / no-hevc-aq / no-svt / no-field / qp-adaptation-range=1.00 / no-scenecut-aware-qpconformance-window-offsets / right=0 / bottom=0 / NTMzNTQ= / decoder-max-rate=0

  35. Language : English

  36. Default : Yes

  37. Forced : No

  38. Color range : Limited

  39. Color primaries : BT.709

  40. Transfer characteristics : BT.709

  41. Matrix coefficients : BT.709


  42. Audio #1

  43. ID : 2

  44. Format : DTS XLL

  45. Format/Info : Digital Theater Systems

  46. Commercial name : DTS-HD Master Audio

  47. Codec ID : A_DTS

  48. Duration : 1 h 33 min

  49. Bit rate mode : Variable

  50. Bit rate : 1 853 kb/s

  51. Channel(s) : 6 channels

  52. Channel layout : C L R Ls Rs LFE

  53. Sampling rate : 48.0 kHz

  54. Frame rate : 93.750 FPS (512 SPF)

  55. Bit depth : 16 bits

  56. Compression mode : Lossless

  57. Stream size : 1.21 GiB (15%)

  58. Title : English DTS-HD Master Audio 5.1 @ 1854 kbps

  59. Language : English

  60. Default : Yes

  61. Forced : No


  62. Audio #2

  63. ID : 3

  64. Format : AC-3

  65. Format/Info : Audio Coding 3

  66. Commercial name : Dolby Digital

  67. Codec ID : A_AC3

  68. Duration : 1 h 33 min

  69. Bit rate mode : Constant

  70. Bit rate : 448 kb/s

  71. Channel(s) : 6 channels

  72. Channel layout : L R C LFE Ls Rs

  73. Sampling rate : 48.0 kHz

  74. Frame rate : 31.250 FPS (1536 SPF)

  75. Compression mode : Lossy

  76. Stream size : 299 MiB (4%)

  77. Title : Mandarin Dolby Digital Audio 5.1 @ 448 kbps

  78. Language : Chinese

  79. Service kind : Complete Main

  80. Default : No

  81. Forced : No


  82. Audio #3

  83. ID : 4

  84. Format : AC-3

  85. Format/Info : Audio Coding 3

  86. Commercial name : Dolby Digital

  87. Codec ID : A_AC3

  88. Duration : 1 h 33 min

  89. Bit rate mode : Constant

  90. Bit rate : 192 kb/s

  91. Channel(s) : 2 channels

  92. Channel layout : L R

  93. Sampling rate : 48.0 kHz

  94. Frame rate : 31.250 FPS (1536 SPF)

  95. Compression mode : Lossy

  96. Stream size : 128 MiB (2%)

  97. Title : English Dolby Digital Audio 2.0 @ 192 kbps Commentary 1

  98. Language : English

  99. Service kind : Complete Main

  100. Default : No

  101. Forced : No


  102. Audio #4

  103. ID : 5

  104. Format : AC-3

  105. Format/Info : Audio Coding 3

  106. Commercial name : Dolby Digital

  107. Codec ID : A_AC3

  108. Duration : 1 h 33 min

  109. Bit rate mode : Constant

  110. Bit rate : 192 kb/s

  111. Channel(s) : 2 channels

  112. Channel layout : L R

  113. Sampling rate : 48.0 kHz

  114. Frame rate : 31.250 FPS (1536 SPF)

  115. Compression mode : Lossy

  116. Stream size : 128 MiB (2%)

  117. Title : English Dolby Digital Audio 2.0 @ 192 kbps Commentary 2

  118. Language : English

  119. Service kind : Complete Main

  120. Default : No

  121. Forced : No


  122. Text #1

  123. ID : 6

  124. Format : PGS

  125. Codec ID : S_HDMV/PGS

  126. Codec ID/Info : Picture based subtitle format used on BDs/HD-DVDs

  127. Duration : 1 h 30 min

  128. Bit rate : 21.2 kb/s

  129. Count of elements : 1218

  130. Stream size : 13.8 MiB (0%)

  131. Title : Eng/SUP

  132. Language : English

  133. Default : No

  134. Forced : No


  135. Text #2

  136. ID : 7

  137. Format : PGS

  138. Codec ID : S_HDMV/PGS

  139. Codec ID/Info : Picture based subtitle format used on BDs/HD-DVDs

  140. Duration : 1 h 32 min

  141. Bit rate : 29.7 kb/s

  142. Count of elements : 2084

  143. Stream size : 19.7 MiB (0%)

  144. Title : Chs/SUP 简体

  145. Language : Chinese

  146. Default : Yes

  147. Forced : No


  148. Text #3

  149. ID : 8

  150. Format : PGS

  151. Codec ID : S_HDMV/PGS

  152. Codec ID/Info : Picture based subtitle format used on BDs/HD-DVDs

  153. Duration : 1 h 32 min

  154. Bit rate : 30.7 kb/s

  155. Count of elements : 2084

  156. Stream size : 20.4 MiB (0%)

  157. Title : Cht/SUP 繁体

  158. Language : Chinese

  159. Default : No

  160. Forced : No


  161. Menu

  162. 00:00:00.000 : en:第 01 章

  163. 00:04:59.674 : en:第 02 章

  164. 00:09:53.843 : en:第 03 章

  165. 00:17:36.555 : en:第 04 章

  166. 00:23:19.481 : en:第 05 章

  167. 00:30:46.428 : en:第 06 章

  168. 00:36:53.920 : en:第 07 章

  169. 00:42:11.946 : en:第 08 章

  170. 00:48:37.540 : en:第 09 章

  171. 00:53:55.274 : en:第 10 章

  172. 01:00:01.431 : en:第 11 章

  173. 01:08:01.744 : en:第 12 章

  174. 01:13:48.007 : en:第 13 章

  175. 01:17:42.366 : en:第 14 章

  176. 01:22:46.545 : en:第 15 章

  177. 01:29:44.337 : en:第 16 章



文件下载


除非特别注明,本文『第一滴血[国英多音轨/简繁字幕].First.Blood.1982.BluRay.1080p.2Audio.DTS-HD.MA.5.1.x265.10bit 8.08GB』来源于互联网机器人自动抓取,非本站原创。 浮游电影网不对本文拥有版权,如有侵犯,请联系邮箱:fuyouu#yandex.com[#换成@]投诉。我们会在15个工作日内删除。 但烦请转载时请标明出处:“本文转载于『浮游电影网』,原文地址:https://www.fuyouu.com/13445.html

评论吧骚年!

发表你的见解   

昵称*

E-mail*(建议输入,以便收到博主回复的提示邮件)

验证码*

您可以使用eMule或eMule Mod(Windows)、aMule(Win、Linux、Mac)等软件下载eD2k链接。。
eMule收藏集(.emulecollection)文件是您选中的所有链接的列表文件。eMule可以直接下载它们。
按住SHIFT键选择可以选中多个选择框。
可用文件名和大小选择器来选择文件。
文件名选择器帮您根据文件名称或后缀来选择文件。不分大小写。
符号使用:
和:空格( )、+
不包含:-
或:|
转义:一对英文引号("");
匹配开头:^
匹配结尾:$
例如:
选中所有名称中包含有“eMule”或“0.49c”字眼,但不包含有“exe”字眼的:emule|0.49c -exe
选中所有名称的开头是“eMule”,结尾是“0.49c”的:^emule 0.49c$
选中所有名称中带有“eMule 0.49c”的(必须是“eMule 0.49c”,中间没有别的字符,不能是“eMule fake 0.49c”),需要转义:"emule 0.49c"
大小选择器帮您根据文件大小选择文件。