当前位置: 首页 >> 欧美电影 >> 夺宝奇兵4[国英多音轨/简繁字幕].Indiana.Jones.and.the.Kingdom.of.the.Crystal.Skull.2008.UHD.BluRay.2160p 23.23GB >> 正文

夺宝奇兵4[国英多音轨/简繁字幕].Indiana.Jones.and.the.Kingdom.of.the.Crystal.Skull.2008.UHD.BluRay.2160p 23.23GB

2021年08月07日 16:38:58     电影发布:来源于网络     电影分类:欧美电影     评论(0)    

夺宝奇兵4[国英多音轨/简繁字幕].Indiana.Jones.and.the.Kingdom.of.the.Crystal.Skull.2008.UHD.BluRay.2160p 23.23GB 冒险片 惊悚片 动作片 欧美电影  第1张

◎译 名 夺宝奇兵4 / 印第安纳琼斯:水晶骷髅王国(台) / 夺宝奇兵之水晶骷髅国 / 印地安纳琼斯和水晶骷髅王国 / 夺宝奇兵4:水晶头骨王国 / 水晶骷髅王国 / 印地安纳琼斯之水晶骷髅王国

◎片 名 Indiana Jones and the Kingdom of the Crystal Skull

◎年 代 2008

◎产 地 美国

◎类 别 动作 / 惊悚 / 冒险

◎语 言 英语 / 德语 / 俄语

◎上映日期 2008-05-22(美国)

◎IMDb链接 https://www.imdb.com/title/tt0367882/

◎豆瓣评分 7.2/10 (50932人评价)

◎豆瓣链接 https://movie.douban.com/subject/1428051/

◎片 长 122分钟

◎导 演 史蒂文·斯皮尔伯格 Steven Spielberg (id:1054440)

◎编 剧 大卫·凯普 David Koepp (id:1019071)

乔治·卢卡斯 George Lucas (id:1054507)

杰夫·内桑森 Jeff Nathanson (id:1292932)

菲利普·考夫曼 Philip Kaufman (id:1027416)

◎演 员 哈里森·福特 Harrison Ford (id:1009238)

希亚·拉博夫 Shia LaBeouf (id:1022000)

凯特·布兰切特 Cate Blanchett (id:1054441)

凯伦·阿兰 Karen Allen (id:1027207)

雷·温斯顿 Ray Winstone (id:1006977)

约翰·赫特 John Hurt (id:1004587)

吉姆·布劳德本特 Jim Broadbent (id:1019049)

Adam Kirley Adam Kirley (id:1305044)

海伦娜·巴雷特 Helena Barrett (id:1419160)

Conor Timmis Conor Timmis (id:1028573)

安德鲁·迪沃夫 Andrew Divoff (id:1010649)

V·J·福斯特 V.J. Foster (id:1330490)

厄尼·雷耶斯 Ernie Reyes Jr. (id:1014014)

约翰托宾 John H. Tobin (id:1054866)

阿兰·戴尔 Alan Dale (id:1067776)

尼托·拉里奥萨 Nito Larioza (id:1209344)

Steven A. Miller Steven A. Miller (id:1251179)

卡洛斯·利纳雷斯 Carlos Linares (id:1211655)

珍妮特·洛佩兹 Janet Lopez (id:1226315)

Andrew Goldfarb Andrew Goldfarb (id:1227856)

Dennis Nusbaum Dennis Nusbaum (id:1228109)

Brian Knutson Brian Knutson (id:1231476)

Sean Marrinan Sean Marrinan (id:1237419)

Gleb Kaminer Gleb Kaminer (id:1209679)

Ilya Jonathan Zaydenberg Ilya Jonathan Zaydenberg (id:1252772)

罗伯特·贝克尔 Robert Baker (id:1192086)

琼·瓦勒拉 Jon Valera (id:1157935)

尼尔·弗林 Neil Flynn (id:1087029)

乔恩·博瑞尔 Jon Braver (id:1279216)

Jonathan Lomma Jonathan Lomma (id:1118182)

帕沙·D.林奇尼科夫 Pasha D. Lychnikoff (id:1123535)

安德雷·阿莱森 Andre Alexsen (id:1269559)

Jerzy Jacyna Jerzy Jacyna (id:1259194)

Sam Rocco Sam Rocco (id:1254317)

萨沙·斯皮尔伯格 Sasha Spielberg (id:1155960)

Paul Thornton Paul Thornton (id:1156514)

切特·汉克斯 Chet Hanks (id:1249843)

凯瑟琳·肯尼迪 Kathleen Kennedy (id:1019168)

福拉维·R·汤贝尼尼 Flávio R. Tambellini (id:1033897)

弗兰克·马歇尔 Frank Marshall (id:1049939)

乔治·卢卡斯 George Lucas (id:1054507)

约翰·威廉姆斯 John Williams (id:1054692)

雅努什·卡明斯基 Janusz Kaminski (id:1009475)

迈克尔·卡恩 Michael Kahn (id:1037019)

黛布拉·赞恩 Debra Zane (id:1301623)

盖·亨德里克斯·戴斯 Guy Hendrix Dyas (id:1023298)

Lawrence A. Hubbs Lawrence A. Hubbs (id:1287063)

Troy Sizemore Troy Sizemore (id:1297724)

卢克·弗里伯恩 Luke Freeborn (id:1276479)

拉里·迪亚斯 Larry Dias (id:1282384)

劳伦·E·波利齐 Lauren E. Polizzi (id:1294667)

玛丽·索弗瑞斯 Mary Zophres (id:1000969)

开尔文·特拉罕 Kelvin R. Trahan (id:1299467)

巴巴拉·洛伦兹 Barbara Lorenz (id:1290317)

里克·斯特拉顿 Rick Stratton (id:1298538)

Carla White Carla White (id:1300794)

Brian Penikas Brian Penikas (id:1294253)

Heather Mages Heather Mages (id:1306035)

迈克·迈克尔斯 Myke Michaels (id:1291984)

乔什·罗森格兰特 John Rosengrant (id:1296098)

Mark Landon Mark Landon (id:1289362)

莫拉格·罗斯 Morag Ross (id:1296145)

Barry R. Koper Barry R. Koper (id:1288888)

Chris Burgoyne Chris Burgoyne (id:1303694)

Jamie Kelman Jamie Kelman (id:1288362)

Carol Schwartz Carol Schwartz (id:1297008)

Debbie Zoller Debbie Zoller (id:1301766)

Ned Neidhardt Ned Neidhardt (id:1303245)

大村浩二 Koji Ohmura (id:1241606)

罗基·福克纳 Rocky Faulkner (id:1203811)

马修·W.蒙格儿 Matthew W. Mungle (id:1131227)

Ken Niederbaumer Ken Niederbaumer (id:1129426)

Karen Asano-Myers Karen Asano-Myers (id:1277472)

詹妮弗·阿斯皮纳尔 Jennifer Aspinall (id:1277513)

杰克·加伯 Jake Garber (id:1098012)

比尔·科尔索 Bill Corso (id:1281317)

肯·迪亚兹 Ken Diaz (id:1282388)

纳塞利·弗蒂 Nathalie Fratti (id:1284115)

托尼·G Toni G (id:1284361)

凯文·黑尼 Kevin Haney (id:1285956)

巴勃罗·赫尔曼 Pablo Helman (id:1011117)

Eric Richard Lasko Eric Richard Lasko (id:1184345)

Lisa C. Satriano Lisa C. Satriano (id:1276451)

Chris Corrado Chris Corrado (id:1072446)

Malu Miranda Malu Miranda (id:1046537)

丹·布莱德利 Dan Bradley (id:1279145)

杰夫·萨尔特茨曼 Jeff Saltzman (id:1296534)

巴里·威廉姆斯 Barry Williams (id:1214148)

Giovanni Nakpil Giovanni Nakpil (id:1216173)

S. Scott Parrish S. Scott Parrish (id:1222546)

布兰科·格鲁契奇 Branko Grujcic (id:1222698)

Kimberly Lashbrook Kimberly Lashbrook (id:1289470)

Kevin Reuter Kevin Reuter (id:1295483)

布雷特·诺特卡特 Brett Northcutt (id:1293296)

Brian Magner Brian Magner (id:1208212)

Rick O'Connor Rick O'Connor (id:1197908)

道格·萨顿 Doug Sutton (id:1298681)

小罗尼·E·威廉姆斯 Ronnie E. Williams Jr. (id:1164066)

Eric Wong Eric Wong (id:1167771)

约翰·西格尔德森 John Sigurdson (id:1169492)

大卫·戈特利布 David Gottlieb (id:1183400)

Mathew Krentz Mathew Krentz (id:1183551)

John Hansen John Hansen (id:1190471)

内尔森·塞普维达 Nelson Sepulveda (id:1297217)

吉姆·苏卡普 Jim Soukup (id:1193247)

Chad Taylor Chad Taylor (id:1298971)

杰克·莫多万 Jack Mongovan (id:1292344)

Yannick 'Botex' Dusseault Yannick 'Botex' Dusseault (id:1282869)

汤姆·菲杰斯 Tom Fejes (id:1283534)

Aaron Ferguson Aaron Ferguson (id:1283576)

戴夫·福格勒 Dave Fogler (id:1283916)

Sherry Hitch Sherry Hitch (id:1286696)

比尔·乔治 Bill George (id:1284713)

布莱恩·格南德 Brian Gernand (id:1284742)

迈克尔·哈尔斯特德 Michael J. Halsted (id:1285887)

克里斯托弗·霍瓦斯 Christopher Horvath (id:1286945)

保罗·哈特森 Paul Huston (id:1287204)

格拉迪·科菲 Grady Cofer (id:1280960)

Stephanie Hornish Stephanie Hornish (id:1286927)

弗朗索瓦·兰伯特 Fran?ois Lambert (id:1289317)

Marshall Richard Krasser Marshall Richard Krasser (id:1288991)

乔恩·亚历山大 Jon Alexander (id:1276987)

Shawn Kelly Shawn Kelly (id:1288355)

Jean Bolte Jean Bolte (id:1278923)

帕特里克·贾尔维斯 Patrick Jarvis (id:1287625)

Geoff Campbell Geoff Campbell (id:1279960)

克雷格·哈迈克 Craig Hammack (id:1285921)

Jung Seung Hong Jung Seung Hong (id:1311909)

米歇尔·莫塔 Michelle Motta (id:1128937)

理查德·布拉夫 Richard Bluff (id:1306174)

Michael Rich Michael Rich (id:1035907)

Scott Younkin Scott Younkin (id:1307271)

Daniel Pearson Daniel Pearson (id:1307511)

马克·西格尔 Mark Siegel (id:1024269)

杰夫·怀特 Jeff White (id:1307659)

史蒂夫·罗林斯 Steve Rawlins (id:1307801)

杰·库珀 Jay Cooper (id:1281222)

凯文·马泰尔 Kevin Martel (id:1307802)

Giles Hancock Giles Hancock (id:1307848)

Michael Gleason Michael Gleason (id:1013136)

巴勃罗·赫尔曼 Pablo Helman (id:1011117)

田师正子 Masahiko Tani (id:1308063)

Matt Brumit Matt Brumit (id:1308885)

Dan Wheaton Dan Wheaton (id:1310282)

Frank Losasso Petterson Frank Losasso Petterson (id:1310487)

C. Michael Easton C. Michael Easton (id:1048745)

Stuart Cripps Stuart Cripps (id:1302245)

Robert Hoffmeister Robert Hoffmeister (id:1099300)

David Weitzberg David Weitzberg (id:1300652)

Paul Churchill Paul Churchill (id:1078031)

约翰·莱文 John M. Levin (id:1118617)

史蒂夫·沃尔顿 Steve Walton (id:1300376)

托德·瓦兹里 Todd Vaziri (id:1299925)

上杉佑子 Yusei Uesugi (id:1299710)

布鲁斯·鲍威尔 Bruce Powell (id:1130151)

帕特里克·克兰斯 Patrick Clancey (id:1071903)

大卫·沙利文 David Sullivan (id:1150862)

◎标 签 冒险 / 美国 / 斯皮尔伯格 / 动作 / 奇幻 / 美国电影 / HarrisonFord / 2008

◎简 介

19年后,印第安纳琼斯博士(Harrison Ford饰)再次启程,旨在将埃克托王国遗失的水晶骷髅头骨归还原地——传说中,归还圣物者将被赐予巨大力量。

在琼斯的老友奥克斯发现水晶头骨前,这一切还只是传说。可奥克斯之后却不知何故丧失了心智,并落入苏联特工队的手中。为首的冷酷女间谍艾瑞娜(Cate Blanchett饰)深深着迷于所谓的神秘力量,她胁迫琼斯一行人与其共同前往亚马逊流域,找寻失落的黄金城埃克托王国。

在秘鲁密林,琼斯等人和苏军展开酣畅淋漓的战斗,其间还伴随着沼泽、食人蚁、原始土著攻击等致命威胁,在他们历经千难万险,最终踏入密室的那一刻,世界上最奇异的景象出现了……

◎获奖情况 (共2项)

第29届金酸莓奖 (2009)

最差前传、重拍、恶搞及续集电影

第17届MTV电影奖 (2008)

MTV电影奖 迄今最佳暑期电影(提名)

  1. ##### MediaInfo ######

  2. General

  3. Unique ID : 312084434912770547229488982913425926751 (0xEAC9469D4A73098AEF5F417F2650EA5F)

  4. Complete name : Indiana.Jones.and.the.Kingdom.of.the.Crystal.Skull.2008.UHD.BluRay.2160p.2Audio.TrueHD.Atmos.7.1.x265.10bit.HDR-10011@BBQDDQ.COM.mkv

  5. Format : Matroska

  6. Format version : Version 4

  7. File size : 23.2 GiB

  8. Duration : 2 h 2 min

  9. Overall bit rate mode : Variable

  10. Overall bit rate : 27.2 Mb/s

  11. Encoded date : UTC 2021-08-03 03:31:16

  12. Writing application : mkvmerge v49.0.0 ('Sick Of Losing Soulmates') 64-bit

  13. Writing library : libebml v1.4.0 + libmatroska v1.6.1


  14. Video

  15. ID : 1

  16. Format : HEVC

  17. Format/Info : High Efficiency Video Coding

  18. Format profile : Main 10@L5.1@High

  19. HDR format : SMPTE ST 2086, HDR10 compatible

  20. Codec ID : V_MPEGH/ISO/HEVC

  21. Duration : 2 h 2 min

  22. Bit rate : 16.5 Mb/s

  23. Width : 3 840 pixels

  24. Height : 1 606 pixels

  25. Display aspect ratio : 2.40:1

  26. Frame rate mode : Constant

  27. Frame rate : 23.976 (24000/1001/53354) FPS

  28. Color space : YUV

  29. Chroma subsampling : 4:2:0 (Type 2)

  30. Bit depth : 10 bits

  31. Bits/(Pixel*Frame) : 0.112

  32. Stream size : 14.1 GiB (61%)

  33. Title : HEVC, x265Main10@L5.1@High, 24/1.001 fps @ 16152 kbps

  34. Writing library : x265 3.4+14-gd419c7152:[Windows][GCC 10.2.0][64 bit] 10bit

  35. Encoding settings : cpuid=533541111039 / frame-threads=4 / numa-pools=16 / wpp / pmode / pme / no-psnr / no-ssim / log-level=2 / input-csp=1 / input-res=3840x1606 / interlace=0 / total-frames=176218 / level-idc=51 / high-tier=1 / uhd-bd=0 / ref=4 / no-allow-non-conformance / repeat-headers / annexb / no-aud / hrd / info / hash=0 / no-temporal-layers / no-open-gop / min-keyint=24 / keyint=240 / gop-lookahead=0 / bframes=8 / b-adapt=2 / b-pyramid / bframe-bias=0 / rc-lookahead=25 / lookahead-slices=0 / NTMzNTQ=uuDQuD2mJt9fsCf / scenecut=40 / hist-scenecut=0 / radl=0 / no-splice / no-intra-refresh / ctu=64 / min-cu-size=8 / no-rect / no-amp / max-tu-size=32 / tu-inter-depth=3 / tu-intra-depth=3 / limit-tu=4 / rdoq-level=2 / dynamic-rd=0.00 / no-ssim-rd / signhide / no-tskip / nr-intra=0 / nr-inter=0 / no-constrained-intra / no-strong-intra-smoothing / max-merge=4 / limit-refs=1 / limit-modes / me=3 / subme=4 / merange=25 / temporal-mvp / no-frame-dup / no-hme / weightp / weightb / no-analyze-src-pics / deblock=-3:-3 / no-sao / no-sao-non-deblock / rd=6 / selective-sao=0 / no-early-skip / rskip / no-fast-intra / no-tskip-fast / no-cu-lossless / b-intra / no-splitrd-skip / rdpenalty=0 / psy-rd=2.00 / psy-rdoq=1.00 / no-rd-refine / no-lossless / cbqpoffs=0 / crqpoffs=0 / rc=crf / crf=21.5 / qcomp=0.65 / qpstep=4 / stats-write=0 / stats-read=0 / vbv-maxrate=160000 / vbv-bufsize=160000 / vbv-init=0.9 / crf-max=0.0 / crf-min=0.0 / ipratio=1.30 / pbratio=1.20 / aq-mode=3 / aq-strength=0.85 / cutree / zone-count=0 / no-strict-cbr / qg-size=32 / no-rc-grain / qpmax=69 / qpmin=0 / no-const-vbv / sar=1 / overscan=0 / videoformat=5 / range=0 / colorprim=9 / transfer=16 / colormatrix=9 / chromaloc=1 / chromaloc-top=2 / chromaloc-bottom=2 / display-window=0 / master-display=G(13250,34500)B(7500,3000)R(34000,16000)WP(15635,16450)L(40000000,50) / cll=1000,265 / min-luma=0 / max-luma=1023 / log2-max-poc-lsb=8 / vui-timing-info / vui-hrd-info / slices=1 / no-opt-qp-pps / no-opt-ref-list-length-pps / no-multi-pass-opt-rps / scenecut-bias=0.05 / hist-threshold=0.03 / no-opt-cu-delta-qp / no-aq-motion / hdr10 / hdr10-opt / no-dhdr10-opt / no-idr-recovery-sei / analysis-reuse-level=0 / analysis-save-reuse-level=0 / analysis-load-reuse-level=0 / scale-factor=0 / refine-intra=0 / refine-inter=0 / refine-mv=1 / refine-ctu-distortion=0 / no-limit-sao / ctu-info=0 / no-lowpass-dct / refine-analysis-type=0 / copy-pic=1 / max-ausize-factor=1.0 / no-dynamic-refine / no-single-sei / no-hevc-aq / no-svt / no-field / qp-adaptation-range=1.00 / no-scenecut-aware-qpconformance-window-offsets / right=0 / bottom=0 / NTMzNTQ= / decoder-max-rate=0

  36. Language : English

  37. Default : Yes

  38. Forced : No

  39. Color range : Limited

  40. Color primaries : BT.2020

  41. Transfer characteristics : PQ

  42. Matrix coefficients : BT.2020 non-constant

  43. Mastering display color primaries : Display P3

  44. Mastering display luminance : min: 0.0050 cd/m2, max: 4000 cd/m2

  45. Maximum Content Light Level : 1000 cd/m2

  46. Maximum Frame-Average Light Level : 265 cd/m2


  47. Audio #1

  48. ID : 2

  49. Format : MLP FBA 16-ch

  50. Format/Info : Meridian Lossless Packing FBA with 16-channel presentation

  51. Commercial name : Dolby TrueHD with Dolby Atmos

  52. Codec ID : A_TRUEHD

  53. Duration : 2 h 2 min

  54. Bit rate mode : Variable

  55. Bit rate : 4 083 kb/s

  56. Maximum bit rate : 6 465 kb/s

  57. Channel(s) : 8 channels

  58. Channel layout : L R C LFE Ls Rs Lb Rb

  59. Sampling rate : 48.0 kHz

  60. Frame rate : 1 200.000 FPS (40 SPF)

  61. Compression mode : Lossless

  62. Stream size : 3.49 GiB (15%)

  63. Title : English Dolby TrueHD 7.1 (Atmos) @ 4723 kbps

  64. Language : English

  65. Default : Yes

  66. Forced : No

  67. Number of dynamic objects : 11

  68. Bed channel count : 1 channel

  69. Bed channel configuration : LFE


  70. Audio #2

  71. ID : 3

  72. Format : AC-3

  73. Format/Info : Audio Coding 3

  74. Commercial name : Dolby Digital

  75. Codec ID : A_AC3

  76. Duration : 2 h 2 min

  77. Bit rate mode : Constant

  78. Bit rate : 640 kb/s

  79. Channel(s) : 6 channels

  80. Channel layout : L R C LFE Ls Rs

  81. Sampling rate : 48.0 kHz

  82. Frame rate : 31.250 FPS (1536 SPF)

  83. Compression mode : Lossy

  84. Stream size : 561 MiB (2%)

  85. Title : English Dolby Digital Audio 5.1 @ 640 kbps

  86. Language : English

  87. Service kind : Complete Main

  88. Default : No

  89. Forced : No


  90. Audio #3

  91. ID : 4

  92. Format : AC-3

  93. Format/Info : Audio Coding 3

  94. Commercial name : Dolby Digital

  95. Codec ID : A_AC3

  96. Duration : 2 h 2 min

  97. Bit rate mode : Constant

  98. Bit rate : 448 kb/s

  99. Channel(s) : 6 channels

  100. Channel layout : L R C LFE Ls Rs

  101. Sampling rate : 48.0 kHz

  102. Frame rate : 31.250 FPS (1536 SPF)

  103. Compression mode : Lossy

  104. Stream size : 393 MiB (2%)

  105. Title : Mandarin Dolby Digital Audio 5.1 @ 448 kbps (驴脾气混音)

  106. Language : Chinese

  107. Service kind : Complete Main

  108. Default : No

  109. Forced : No


  110. Audio #4

  111. ID : 5

  112. Format : DTS XLL

  113. Format/Info : Digital Theater Systems

  114. Commercial name : DTS-HD Master Audio

  115. Codec ID : A_DTS

  116. Duration : 2 h 2 min

  117. Bit rate mode : Variable

  118. Bit rate : 5 245 kb/s

  119. Channel(s) : 8 channels

  120. Channel layout : C L R LFE Lb Rb Lss Rss

  121. Sampling rate : 48.0 kHz

  122. Frame rate : 93.750 FPS (512 SPF)

  123. Bit depth : 24 bits

  124. Compression mode : Lossless

  125. Stream size : 4.49 GiB (19%)

  126. Title : DTS-HD Master Audio 7.1 @ 4623 kbps (重编码)

  127. Language : Chinese

  128. Default : No

  129. Forced : No


  130. Text #1

  131. ID : 6

  132. Format : PGS

  133. Codec ID : S_HDMV/PGS

  134. Codec ID/Info : Picture based subtitle format used on BDs/HD-DVDs

  135. Duration : 1 h 54 min

  136. Bit rate : 26.8 kb/s

  137. Count of elements : 2084

  138. Stream size : 22.0 MiB (0%)

  139. Title : Eng/SUP

  140. Language : English

  141. Default : No

  142. Forced : No


  143. Text #2

  144. ID : 7

  145. Format : PGS

  146. Codec ID : S_HDMV/PGS

  147. Codec ID/Info : Picture based subtitle format used on BDs/HD-DVDs

  148. Duration : 1 h 55 min

  149. Bit rate : 29.4 kb/s

  150. Count of elements : 2396

  151. Stream size : 24.3 MiB (0%)

  152. Title : Eng/SUP SDH

  153. Language : English

  154. Default : No

  155. Forced : No


  156. Text #3

  157. ID : 8

  158. Format : PGS

  159. Codec ID : S_HDMV/PGS

  160. Codec ID/Info : Picture based subtitle format used on BDs/HD-DVDs

  161. Duration : 2 h 1 min

  162. Bit rate : 18.1 kb/s

  163. Count of elements : 2052

  164. Stream size : 15.7 MiB (0%)

  165. Title : Chs/SUP 原盘简体

  166. Language : Chinese

  167. Default : Yes

  168. Forced : No


  169. Text #4

  170. ID : 9

  171. Format : PGS

  172. Codec ID : S_HDMV/PGS

  173. Codec ID/Info : Picture based subtitle format used on BDs/HD-DVDs

  174. Duration : 2 h 1 min

  175. Bit rate : 18.1 kb/s

  176. Count of elements : 2044

  177. Stream size : 15.7 MiB (0%)

  178. Title : Cht/SUP 原盘繁体(HK)

  179. Language : Chinese

  180. Default : No

  181. Forced : No


  182. Text #5

  183. ID : 10

  184. Format : PGS

  185. Codec ID : S_HDMV/PGS

  186. Codec ID/Info : Picture based subtitle format used on BDs/HD-DVDs

  187. Duration : 2 h 1 min

  188. Bit rate : 18.9 kb/s

  189. Count of elements : 2034

  190. Stream size : 16.4 MiB (0%)

  191. Title : Cht/SUP 原盘繁体(TW)

  192. Language : Chinese

  193. Default : No

  194. Forced : No


  195. Text #6

  196. ID : 11

  197. Format : PGS

  198. Codec ID : S_HDMV/PGS

  199. Codec ID/Info : Picture based subtitle format used on BDs/HD-DVDs

  200. Duration : 1 h 56 min

  201. Bit rate : 33.4 kb/s

  202. Count of elements : 1918

  203. Stream size : 27.9 MiB (0%)

  204. Title : Chs/SUP 简英双语

  205. Language : Chinese

  206. Default : No

  207. Forced : No


  208. Text #7

  209. ID : 12

  210. Format : PGS

  211. Codec ID : S_HDMV/PGS

  212. Codec ID/Info : Picture based subtitle format used on BDs/HD-DVDs

  213. Duration : 1 h 56 min

  214. Bit rate : 34.3 kb/s

  215. Count of elements : 1918

  216. Stream size : 28.7 MiB (0%)

  217. Title : Cht/SUP 繁英双语

  218. Language : Chinese

  219. Default : No

  220. Forced : No


  221. Menu

  222. 00:00:00.000 : en:第 01 章

  223. 00:07:20.190 : en:第 02 章

  224. 00:13:10.206 : en:第 03 章

  225. 00:21:42.635 : en:第 04 章

  226. 00:27:37.865 : en:第 05 章

  227. 00:36:57.215 : en:第 06 章

  228. 00:46:33.624 : en:第 07 章

  229. 00:55:36.166 : en:第 08 章

  230. 01:05:45.233 : en:第 09 章

  231. 01:12:06.781 : en:第 10 章

  232. 01:21:51.657 : en:第 11 章

  233. 01:29:11.763 : en:第 12 章

  234. 01:36:03.007 : en:第 13 章

  235. 01:44:22.006 : en:第 14 章

  236. 01:51:07.953 : en:第 15 章

  237. 01:55:53.738 : en:第 16 章



文件下载


除非特别注明,本文『夺宝奇兵4[国英多音轨/简繁字幕].Indiana.Jones.and.the.Kingdom.of.the.Crystal.Skull.2008.UHD.BluRay.2160p 23.23GB』来源于互联网机器人自动抓取,非本站原创。 浮游电影网不对本文拥有版权,如有侵犯,请联系邮箱:fuyouu#yandex.com[#换成@]投诉。我们会在15个工作日内删除。 但烦请转载时请标明出处:“本文转载于『浮游电影网』,原文地址:https://www.fuyouu.com/13443.html

评论吧骚年!

发表你的见解   

昵称*

E-mail*(建议输入,以便收到博主回复的提示邮件)

验证码*

您可以使用eMule或eMule Mod(Windows)、aMule(Win、Linux、Mac)等软件下载eD2k链接。。
eMule收藏集(.emulecollection)文件是您选中的所有链接的列表文件。eMule可以直接下载它们。
按住SHIFT键选择可以选中多个选择框。
可用文件名和大小选择器来选择文件。
文件名选择器帮您根据文件名称或后缀来选择文件。不分大小写。
符号使用:
和:空格( )、+
不包含:-
或:|
转义:一对英文引号("");
匹配开头:^
匹配结尾:$
例如:
选中所有名称中包含有“eMule”或“0.49c”字眼,但不包含有“exe”字眼的:emule|0.49c -exe
选中所有名称的开头是“eMule”,结尾是“0.49c”的:^emule 0.49c$
选中所有名称中带有“eMule 0.49c”的(必须是“eMule 0.49c”,中间没有别的字符,不能是“eMule fake 0.49c”),需要转义:"emule 0.49c"
大小选择器帮您根据文件大小选择文件。