当前位置: 首页 >> 欧美电影 >> 共犯[中文字幕].The.Conspirator.2010.1080p.BluRay.x265.10bit.DD/5.1.MNHD 7.99GB >> 正文

共犯[中文字幕].The.Conspirator.2010.1080p.BluRay.x265.10bit.DD/5.1.MNHD 7.99GB

2021年08月07日 16:30:25     电影发布:来源于网络     电影分类:欧美电影     评论(0)    

共犯[中文字幕].The.Conspirator.2010.1080p.BluRay.x265.10bit.DD/5.1.MNHD 7.99GB 剧情片 欧美电影  第1张

◎译 名 共犯 / 惊杀大阴谋(港) / 女同谋 / 同谋

◎片 名 The Conspirator

◎年 代 2010

◎产 地 美国

◎类 别 剧情

◎语 言 英语

◎上映日期 2011-06-16(中国香港) / 2011-04-15(美国)

◎IMDb链接 https://www.imdb.com/title/tt0968264/

◎豆瓣评分 7.6/10 (4911人评价)

◎豆瓣链接 https://movie.douban.com/subject/3998107/

◎片 长 123分钟

◎导 演 罗伯特·雷德福 Robert Redford (id:1053617)

◎编 剧 格雷戈里·伯恩斯坦 Gregory Bernstein (id:1010312)

◎演 员 詹姆斯·麦卡沃伊 James McAvoy (id:1006958)

罗宾·怀特 Robin Wright (id:1002676)

汤姆·威尔金森 Tom Wilkinson (id:1036397)

埃文·蕾切尔·伍德 Evan Rachel Wood (id:1035652)

阿丽克西斯·布莱德尔 Alexis Bledel (id:1041017)

贾斯汀·朗 Justin Long (id:1017904)

凯文·克莱恩 Kevin Kline (id:1040531)

诺曼·瑞杜斯 Norman Reedus (id:1013802)

托比·凯贝尔 Toby Kebbell (id:1010533)

Russell Cook Russell Cook (id:1200049)

艾米·蒂普顿 Amy Tipton (id:1208277)

Beau Turpin (id:1235670)

Jessica Spaid (id:1262806)

乔纳森·格罗夫 Jonathan Groff (id:1000002)

谢伊·惠格姆 Shea Whigham (id:1165173)

丹尼·赫斯顿 Danny Huston (id:1333426)

科尔姆·米尼 Colm Meaney (id:1019029)

布莱恩·杜尔金 Brian F. Durkin (id:1198489)

Brandon Carroll Brandon Carroll (id:1192131)

Ken Feragen Ken Feragen (id:1185480)

约翰尼·西蒙斯 Johnny Simmons (id:1036412)

斯蒂芬·鲁特 Stephen Root (id:1041136)

詹姆斯·戴尔 James Badge Dale (id:1044722)

John Michael Weatherly John Michael Weatherly (id:1055244)

克里斯·鲍尔 Chris Bauer (id:1067002)

吉姆·特鲁-福斯特 Jim True-Frost (id:1150011)

Gene Witham Gene Witham (id:1162724)

格雷格·夏皮罗 Greg Shapiro (id:1297324)

罗伯特·雷德福 Robert Redford (id:1053617)

马克·艾沙姆 Mark Isham (id:1050293)

纽顿·托马斯·西格尔 Newton Thomas Sigel (id:1276570)

克雷格·麦凯 Craig McKay (id:1291636)

艾薇·考夫曼 Avy Kaufman (id:1288224)

卡琳娜·伊瓦诺夫 Kalina Ivanov (id:1287429)

Louise Frogley Louise Frogley (id:1284250)

理查德·格雷弗斯 Richard Graves (id:1285324)

◎标 签 历史 / 美国电影 / 剧情 / 法律 / 2011 / 政治 / 人性 / 战争

◎简 介

故事开始于林肯总统遇刺身亡之后,有八人因为谋杀总统而遭到了逮捕,42岁的玛丽(罗宾·怀特 Robin Wright 饰)是其中唯一的女性,玛丽经营着一间家庭旅馆,而刺杀总统的全部计划都是在这间旅馆的某个房间里诞生的。艾肯(詹姆斯·麦卡沃伊 James McAvoy 饰)是一位初出茅庐年轻有为的律师,他奉命为玛丽辩护,虽然艾肯知道就算有他的辩护,玛丽还是难逃死刑的惩罚,但还是决定走一遍流程。

然而,在和玛丽沟通交流后,艾肯渐渐开始怀疑,玛丽真的是无辜的,她只不过是被威胁和被利用的人质。没有人相信玛丽的清白,她的命完完整整的被捏在艾肯的手中。

◎获奖情况 (共1项)

第11届凤凰城影评人协会奖 (2011)

年度被忽略影片(提名)

  1. ##### MediaInfo ######

  2. General

  3. Unique ID : 6695521670531615376786713179247107157 (0x50982B4933869AA42C68A3DF5645C55)

  4. Complete name : The.Conspirator.2010.1080p.BluRay.x265.10bit.DD+5.1.MNHD-10018@BBQDDQ.COM.mkv

  5. Format : Matroska

  6. Format version : Version 4

  7. File size : 7.99 GiB

  8. Duration : 2 h 2 min

  9. Overall bit rate : 9 344 kb/s

  10. Movie name : The.Conspirator.2010.1080p.BluRay.x265.10bit.DD+5.1.MNHD-10018@BBQDDQ.COM

  11. Encoded date : UTC 2021-08-06 12:18:48

  12. Writing application : mkvmerge v59.0.0 ('Shining Star') 64-bit

  13. Writing library : libebml v1.4.2 + libmatroska v1.6.4

  14. Cover : Yes

  15. Attachments : cover.jpg


  16. Video

  17. ID : 1

  18. Format : HEVC

  19. Format/Info : High Efficiency Video Coding

  20. Format profile : Main 10@L5.1@High

  21. Codec ID : V_MPEGH/ISO/HEVC

  22. Duration : 2 h 2 min

  23. Bit rate : 7 333 kb/s

  24. Width : 1 920 pixels

  25. Height : 800 pixels

  26. Display aspect ratio : 2.40:1

  27. Frame rate mode : Constant

  28. Frame rate : 23.976 (24000/1001/53354) FPS

  29. Color space : YUV

  30. Chroma subsampling : 4:2:0

  31. Bit depth : 10 bits

  32. Bits/(Pixel*Frame) : 0.199

  33. Stream size : 6.27 GiB (78%)

  34. Writing library : x265 3.5+2-g2b25c9ba0+45:[Windows][GCC 10.2.0][64 bit] Yuuki 10bit

  35. Encoding settings : rc=crf / crf=18.5000 / qcomp=0.65 / qpstep=4 / stats-write=0 / stats-read=0 / vbv-maxrate=160000 / vbv-bufsize=160000 / vbv-init=0.9 / min-vbv-fullness=50.0 / max-vbv-fullness=80.0 / crf-max=0.0 / crf-min=0.0 / no-lossless / no-cu-lossless / aq-mode=1 / aq-strength=1.00 / cbqpoffs=-2 / crqpoffs=-2 / ipratio=1.30 / pbratio=1.20 / psy-rd=1.50 / psy-rdoq=1.00 / deblock=-3:-3 / ref=6 / limit-refs=0 / no-limit-modes / bframes=8 / b-adapt=2 / bframe-bias=0 / b-pyramid / b-intra / weightp / weightb / min-keyint=1 / max-keyint=250 / rc-lookahead=100 / gop-lookahead=0 / NTMzNTQ=uuDQuD2mJt9fsCf / scenecut=40 / hist-scenecut=0 / radl=0 / max-cu-size=32 / min-cu-size=8 / me=3 / subme=7 / merange=57 / rdoq-level=2 / rd=4 / rdpenalty=0 / dynamic-rd=0.00 / no-rd-refine / ----- / no-cutree / no-sao / no-rect / no-amp / no-open-gop / wpp / pmode / no-pme / no-psnr / no-ssim / nr-intra=0 / nr-inter=0 / no-constrained-intra / strong-intra-smoothing / max-tu-size=32 / tu-inter-depth=4 / tu-intra-depth=4 / limit-tu=0 / qg-size=8 / qpmax=69 / qpmin=0 / ----- / cpuid=533541111039 / frame-threads=3 / numa-pools=12 / log-level=2 / input-csp=1 / input-res=1920x800 / interlace=0 / level-idc=0 / high-tier=1 / uhd-bd=0 / no-allow-non-conformance / no-repeat-headers / no-aud / no-hrd / info / hash=0 / no-temporal-layers / lookahead-slices=0 / no-splice / no-intra-refresh / no-ssim-rd / signhide / no-tskip / max-merge=5 / temporal-mvp / no-frame-dup / no-hme / no-analyze-src-pics / no-sao-non-deblock / selective-sao=0 / no-early-skip / no-rskip / no-fast-intra / no-tskip-fast / no-splitrd-skip / zone-count=0 / no-strict-cbr / no-rc-grain / no-const-vbv / sar=0 / overscan=0 / videoformat=5 / range=0 / colorprim=1 / transfer=1 / colormatrix=1 / chromaloc=0 / display-window=0 / cll=0,0 / min-luma=0 / max-luma=1023 / log2-max-poc-lsb=8 / vui-timing-info / vui-hrd-info / slices=1 / no-opt-qp-pps / no-opt-ref-list-length-pps / no-multi-pass-opt-rps / scenecut-bias=0.05 / hist-threshold=0.03 / no-opt-cu-delta-qp / no-aq-motion / no-hdr10 / no-hdr10-opt / no-dhdr10-opt / no-idr-recovery-sei / analysis-reuse-level=0 / analysis-save-reuse-level=0 / analysis-load-reuse-level=0 / scale-factor=0 / refine-intra=0 / refine-inter=0 / refine-mv=1 / refine-ctu-distortion=0 / no-limit-sao / ctu-info=0 / no-lowpass-dct / refine-analysis-type=0 / copy-pic=1 / max-ausize-factor=1.0 / no-dynamic-refine / no-single-sei / no-hevc-aq / no-svt / no-field / qp-adaptation-range=1.00 / scenecut-aware-qp=0conformance-window-offsets / right=0 / bottom=0 / NTMzNTQ= / decoder-max-rate=0 / no-vbv-live-multi-pass

  36. Default : Yes

  37. Forced : No

  38. Color range : Limited

  39. Color primaries : BT.709

  40. Transfer characteristics : BT.709

  41. Matrix coefficients : BT.709


  42. Audio #1

  43. ID : 2

  44. Format : E-AC-3

  45. Format/Info : Enhanced AC-3

  46. Commercial name : Dolby Digital Plus

  47. Codec ID : A_EAC3

  48. Duration : 2 h 2 min

  49. Bit rate mode : Constant

  50. Bit rate : 768 kb/s

  51. Channel(s) : 6 channels

  52. Channel layout : L R C LFE Ls Rs

  53. Sampling rate : 48.0 kHz

  54. Frame rate : 62.500 FPS (768 SPF)

  55. Compression mode : Lossy

  56. Stream size : 672 MiB (8%)

  57. Language : English

  58. Service kind : Complete Main

  59. Default : Yes

  60. Forced : No


  61. Audio #2

  62. ID : 3

  63. Format : E-AC-3

  64. Format/Info : Enhanced AC-3

  65. Commercial name : Dolby Digital Plus

  66. Codec ID : A_EAC3

  67. Duration : 2 h 2 min

  68. Bit rate mode : Constant

  69. Bit rate : 768 kb/s

  70. Channel(s) : 6 channels

  71. Channel layout : L R C LFE Ls Rs

  72. Sampling rate : 48.0 kHz

  73. Frame rate : 62.500 FPS (768 SPF)

  74. Compression mode : Lossy

  75. Stream size : 672 MiB (8%)

  76. Language : German

  77. Service kind : Complete Main

  78. Default : Yes

  79. Forced : No


  80. Audio #3

  81. ID : 4

  82. Format : AC-3

  83. Format/Info : Audio Coding 3

  84. Commercial name : Dolby Digital

  85. Codec ID : A_AC3

  86. Duration : 2 h 2 min

  87. Bit rate mode : Constant

  88. Bit rate : 448 kb/s

  89. Channel(s) : 2 channels

  90. Channel layout : L R

  91. Sampling rate : 48.0 kHz

  92. Frame rate : 31.250 FPS (1536 SPF)

  93. Compression mode : Lossy

  94. Stream size : 392 MiB (5%)

  95. Title : Commentary

  96. Language : English

  97. Service kind : Complete Main

  98. Default : Yes

  99. Forced : No


  100. Text #1

  101. ID : 5

  102. Format : UTF-8

  103. Codec ID : S_TEXT/UTF8

  104. Codec ID/Info : UTF-8 Plain Text

  105. Duration : 1 h 52 min

  106. Bit rate : 68 b/s

  107. Count of elements : 1798

  108. Stream size : 56.7 KiB (0%)

  109. Language : Chinese

  110. Default : Yes

  111. Forced : No


  112. Text #2

  113. ID : 6

  114. ID in the original source medium : 4609 (0x1201)

  115. Format : PGS

  116. Muxing mode : zlib

  117. Codec ID : S_HDMV/PGS

  118. Codec ID/Info : Picture based subtitle format used on BDs/HD-DVDs

  119. Duration : 1 h 51 min

  120. Bit rate : 41.6 kb/s

  121. Count of elements : 3178

  122. Stream size : 33.2 MiB (0%)

  123. Language : English

  124. Default : Yes

  125. Forced : No

  126. Original source medium : Blu-ray


  127. Text #3

  128. ID : 7

  129. ID in the original source medium : 4608 (0x1200)

  130. Format : PGS

  131. Muxing mode : zlib

  132. Codec ID : S_HDMV/PGS

  133. Codec ID/Info : Picture based subtitle format used on BDs/HD-DVDs

  134. Duration : 2 h 1 min

  135. Bit rate : 35.0 kb/s

  136. Count of elements : 2536

  137. Stream size : 30.3 MiB (0%)

  138. Language : German

  139. Default : Yes

  140. Forced : No

  141. Original source medium : Blu-ray


  142. Menu

  143. 00:00:00.000 : 第 01 章

  144. 00:14:01.966 : 第 02 章

  145. 00:24:08.655 : 第 03 章

  146. 00:34:05.543 : 第 04 章

  147. 00:42:53.862 : 第 05 章

  148. 00:51:56.488 : 第 06 章

  149. 01:02:00.216 : 第 07 章

  150. 01:15:16.178 : 第 08 章

  151. 01:27:18.399 : 第 09 章

  152. 01:38:10.092 : 第 10 章

  153. 01:51:02.614 : 第 11 章

  154. 01:53:52.784 : 第 12 章


文件下载


除非特别注明,本文『共犯[中文字幕].The.Conspirator.2010.1080p.BluRay.x265.10bit.DD/5.1.MNHD 7.99GB』来源于互联网机器人自动抓取,非本站原创。 浮游电影网不对本文拥有版权,如有侵犯,请联系邮箱:fuyouu#yandex.com[#换成@]投诉。我们会在15个工作日内删除。 但烦请转载时请标明出处:“本文转载于『浮游电影网』,原文地址:https://www.fuyouu.com/13438.html

评论吧骚年!

发表你的见解   

昵称*

E-mail*(建议输入,以便收到博主回复的提示邮件)

验证码*

您可以使用eMule或eMule Mod(Windows)、aMule(Win、Linux、Mac)等软件下载eD2k链接。。
eMule收藏集(.emulecollection)文件是您选中的所有链接的列表文件。eMule可以直接下载它们。
按住SHIFT键选择可以选中多个选择框。
可用文件名和大小选择器来选择文件。
文件名选择器帮您根据文件名称或后缀来选择文件。不分大小写。
符号使用:
和:空格( )、+
不包含:-
或:|
转义:一对英文引号("");
匹配开头:^
匹配结尾:$
例如:
选中所有名称中包含有“eMule”或“0.49c”字眼,但不包含有“exe”字眼的:emule|0.49c -exe
选中所有名称的开头是“eMule”,结尾是“0.49c”的:^emule 0.49c$
选中所有名称中带有“eMule 0.49c”的(必须是“eMule 0.49c”,中间没有别的字符,不能是“eMule fake 0.49c”),需要转义:"emule 0.49c"
大小选择器帮您根据文件大小选择文件。