当前位置: 首页 >> 动画电影 >> 疯狂丑小鸭2靠谱英雄.Kao.Pu.Ying.Xiong.2021.1080p.WEB-DL.H264.AAC 19.35GB >> 正文

疯狂丑小鸭2靠谱英雄.Kao.Pu.Ying.Xiong.2021.1080p.WEB-DL.H264.AAC 19.35GB

2021年08月06日 11:43:51     电影发布:来源于网络     电影分类:动画电影     评论(0)    

疯狂丑小鸭2靠谱英雄.Kao.Pu.Ying.Xiong.2021.1080p.WEB DL.H264.AAC 19.35GB 动画片 冒险片 喜剧片 动画电影  第1张

◎译 名 疯狂丑小鸭2靠谱英雄

◎年 代 2021

◎产 地 中国大陆

◎类 别 喜剧 / 动画 / 冒险

◎语 言 汉语普通话

◎上映日期 2021-06-12(中国大陆)

◎IMDb链接 https://www.imdb.com/title//

◎豆瓣链接 https://movie.douban.com/subject/35379259/

◎片 长 82分钟

◎标 签 动画 / 冒险 / 中国大陆 / 2021 / 喜剧

◎简 介

丑小鸭成功拯救鸟类王国后回到了鸭子农场,在那里他受到了英雄般的待遇,丑小鸭也开始沉迷于这种明星的光环。

另一边鸟类王国中一场不知名的瘟疫蔓延开来,不少鸟儿都染病不起,天鹅议员们派人前去寻求卡尔骑士的帮助,正巧卡尔骑士意外受伤,只能让丑小鸭去查明原因,可没想到在看到瘟疫惨状时,丑小鸭情绪崩溃害怕的逃走了,众人对丑小鸭失望透顶。

逃走的丑小鸭也陷入深深的自责中,他终于重新振作起来,决定和丑小八一起找出病因,却没想到被暗中潜伏的加瓦埋伏,夺走了他的力量,还将他困在了枯井之中,在井内,丑小鸭找到生机,见到了鸟类神秘的古代遗迹,也揭开加瓦的秘密。危机时刻,丑小鸭及时赶到激活琉璃鸟之光,再次拯救了鸟类王国。

  1. ##### MediaInfo ######

  2. General

  3. Complete name : 疯狂丑小鸭2靠谱英雄.Kao.Pu.Ying.Xiong.2021.1080p.WEB-DL.H264.AAC-10003@BBQDDQ.COM.mp4

  4. Format : MPEG-4

  5. Format profile : Base Media / Version 2

  6. Codec ID : mp42 (mp42/mp41)

  7. File size : 19.3 GiB

  8. Duration : 1 h 18 min

  9. Overall bit rate mode : Variable

  10. Overall bit rate : 35.2 Mb/s

  11. Encoded date : UTC 2021-07-27 15:45:24

  12. Tagged date : UTC 2021-07-27 15:50:52

  13. TIM : 00:00:00:00

  14. TSC : 24

  15. TSZ : 1


  16. Video

  17. ID : 1

  18. Format : AVC

  19. Format/Info : Advanced Video Codec

  20. Format profile : Main@L5

  21. Format settings : CABAC / 4 Ref Frames

  22. Format settings, CABAC : Yes

  23. Format settings, Reference frames : 4 frames

  24. Codec ID : avc1

  25. Codec ID/Info : Advanced Video Coding

  26. Duration : 1 h 18 min

  27. Bit rate : 34.9 Mb/s

  28. Width : 2 560 pixels

  29. Height : 1 082 pixels

  30. Display aspect ratio : 2.35:1

  31. Frame rate mode : Constant

  32. Frame rate : 24.000 FPS

  33. Color space : YUV

  34. Chroma subsampling : 4:2:0

  35. Bit depth : 8 bits

  36. Scan type : Progressive

  37. Bits/(Pixel*Frame) : 0.525

  38. Stream size : 19.2 GiB (99%)

  39. Language : English

  40. Encoded date : UTC 2021-07-27 15:45:24

  41. Tagged date : UTC 2021-07-27 15:45:24

  42. Color range : Limited

  43. Color primaries : BT.709

  44. Transfer characteristics : BT.709

  45. Matrix coefficients : BT.709

  46. Codec configuration box : avcC


  47. Audio

  48. ID : 2

  49. Format : AAC LC

  50. Format/Info : Advanced Audio Codec Low Complexity

  51. Codec ID : mp4a-40-2

  52. Duration : 1 h 18 min

  53. Source duration : 1 h 18 min

  54. Bit rate mode : Variable

  55. Bit rate : 317 kb/s

  56. Maximum bit rate : 408 kb/s

  57. Channel(s) : 2 channels

  58. Channel layout : L R

  59. Sampling rate : 48.0 kHz

  60. Frame rate : 46.875 FPS (1024 SPF)

  61. Compression mode : Lossy

  62. Stream size : 178 MiB (1%)

  63. Source stream size : 179 MiB (1%)

  64. Language : English

  65. Encoded date : UTC 2021-07-27 15:45:24

  66. Tagged date : UTC 2021-07-27 15:45:24


文件下载


除非特别注明,本文『疯狂丑小鸭2靠谱英雄.Kao.Pu.Ying.Xiong.2021.1080p.WEB-DL.H264.AAC 19.35GB』来源于互联网机器人自动抓取,非本站原创。 浮游电影网不对本文拥有版权,如有侵犯,请联系邮箱:fuyouu#yandex.com[#换成@]投诉。我们会在15个工作日内删除。 但烦请转载时请标明出处:“本文转载于『浮游电影网』,原文地址:https://www.fuyouu.com/13414.html

评论吧骚年!

发表你的见解   

昵称*

E-mail*(建议输入,以便收到博主回复的提示邮件)

验证码*

您可以使用eMule或eMule Mod(Windows)、aMule(Win、Linux、Mac)等软件下载eD2k链接。。
eMule收藏集(.emulecollection)文件是您选中的所有链接的列表文件。eMule可以直接下载它们。
按住SHIFT键选择可以选中多个选择框。
可用文件名和大小选择器来选择文件。
文件名选择器帮您根据文件名称或后缀来选择文件。不分大小写。
符号使用:
和:空格( )、+
不包含:-
或:|
转义:一对英文引号("");
匹配开头:^
匹配结尾:$
例如:
选中所有名称中包含有“eMule”或“0.49c”字眼,但不包含有“exe”字眼的:emule|0.49c -exe
选中所有名称的开头是“eMule”,结尾是“0.49c”的:^emule 0.49c$
选中所有名称中带有“eMule 0.49c”的(必须是“eMule 0.49c”,中间没有别的字符,不能是“eMule fake 0.49c”),需要转义:"emule 0.49c"
大小选择器帮您根据文件大小选择文件。