当前位置: 首页 >> 欧美电影 >> 人之怒[国英多音轨].Wrath.Of.Man.2021.1080p.WEB-DL.AAC.H264 16.22GB >> 正文

人之怒[国英多音轨].Wrath.Of.Man.2021.1080p.WEB-DL.AAC.H264 16.22GB

2021年08月06日 11:24:39     电影发布:来源于网络     电影分类:欧美电影     评论(0)    

人之怒[国英多音轨].Wrath.Of.Man.2021.1080p.WEB DL.AAC.H264 16.22GB 犯罪片 动作片 欧美电影  第1张

◎译 名 人之怒 / 玩命钞劫(台) / 运钞车 / Cash Truck

◎片 名 Wrath of Man

◎年 代 2021

◎产 地 美国 / 英国

◎类 别 动作 / 犯罪

◎语 言 英语

◎上映日期 2021-05-10(中国大陆) / 2021-04-22(俄罗斯) / 2021-05-07(美国)

◎IMDb链接 https://www.imdb.com/title/tt11083552/

◎豆瓣评分 6.8/10 (89949人评价)

◎豆瓣链接 https://movie.douban.com/subject/27046740/

◎片 长 118分钟

◎导 演 盖·里奇 Guy Ritchie (id:1025148)

◎编 剧 尼古拉斯·布赫里夫 Nicolas Boukhrief (id:1019943)

艾瑞克·贝斯纳 éric Besnard (id:1033108)

盖·里奇 Guy Ritchie (id:1025148)

马恩·戴维斯 Marn Davies (id:1405637)

伊凡·阿特金森 Ivan Atkinson (id:1405636)

◎演 员 杰森·斯坦森 Jason Statham (id:1049484)

霍特·麦克卡兰尼 Holt McCallany (id:1118033)

罗奇·威廉姆斯 Rocci Williams (id:1456269)

乔什·哈奈特 Josh Hartnett (id:1025145)

杰弗里·多诺万 Jeffrey Donovan (id:1044732)

斯科特·伊斯特伍德 Scott Eastwood (id:1000188)

安迪·加西亚 Andy Garcia (id:1002695)

道比·欧帕瑞 Deobia Oparei (id:1326517)

拉兹·阿隆索 Laz Alonso (id:1277094)

劳尔·卡斯提洛 Raúl Castillo (id:1338121)

克里斯·雷利 Chris Reilly (id:1352289)

埃迪·马森 Eddie Marsan (id:1291072)

尼芙·阿尔格 Niamh Algar (id:1410386)

塔格·墨菲 Tadhg Murphy (id:1308673)

马克·阿诺德 Mark Arnold (id:1057556)

亚历克斯·费恩斯 Alex Ferns (id:1028439)

乔什·柯德雷 Josh Cowdery (id:1450335)

杰森·王 Jason Wong (id:1260279)

罗伯·德兰尼 Rob Delaney (id:1268159)

伊莱·布朗 Eli Brown (id:1413892)

凯瑞·莎勒 Kerry Shale (id:1322372)

卡梅伦·杰克 Cameron Jack (id:1368839)

达雷尔·席尔瓦 Darrell D'Silva (id:1438597)

巴布斯·奥卢桑莫昆 Babs Olusanmokun (id:1412919)

多米尼克·托马斯 Dominique Thomas (id:1375866)

琳·勒内 Lyne Renee (id:1217150)

蕾贝卡·卡尔德 Rebecca Calder (id:1423736)

伊芙·麦凯林 Eve Macklin (id:1345477)

詹姆斯·沃伦 James Warren (id:1357923)

史蒂威·戴维斯 Stevee Davies (id:1263226)

蒙塔娜·曼宁 Montana Manning (id:1415104)

安东尼·莫利纳利 Anthony Molinari (id:1045545)

波兹·马龙 Post Malone (id:1432820)

(id:1454486)

杰拉尔德·泰勒 Gerald Tyler (id:1457718)

艾伦·斯图尔特 Alan Stewart (id:1051226)

◎标 签 犯罪 / 动作 / 美国 / 2021 / 剧情 / 悬疑 / 英国 / 黑色幽默

◎简 介

在一次全副武装的运钞车劫案中,梅斯先生(杰森·斯坦森 饰)的儿子作为案发目击者被劫匪杀害。怒火中烧的梅斯为报丧子之仇,化身H卧底成为运钞车安保,试图找出杀害他儿子的劫匪以及与劫匪暗中勾结的安保公司内鬼。

  1. ##### MediaInfo ######

  2. General

  3. Unique ID : 283340857306204888521894944369287814727 (0xD52976D2E406910C812CE0774AA6DE47)

  4. Complete name : 人之怒.Wrath.Of.Man.2021.1080p.WEB-DL.AAC.H264-10005@BBQDDQ.COM.mkv

  5. Format : Matroska

  6. Format version : Version 4

  7. File size : 16.2 GiB

  8. Duration : 1 h 54 min

  9. Overall bit rate : 20.2 Mb/s

  10. Encoded date : UTC 2021-08-04 12:28:49

  11. Writing application : mkvmerge v50.0.0 ('Awakenings') 64-bit

  12. Writing library : libebml v1.4.0 + libmatroska v1.6.2


  13. Video

  14. ID : 1

  15. Format : AVC

  16. Format/Info : Advanced Video Codec

  17. Format profile : Main@L4.1

  18. Format settings : CABAC / 1 Ref Frames

  19. Format settings, CABAC : Yes

  20. Format settings, Reference frames : 1 frame

  21. Format settings, GOP : M=1, N=30

  22. Codec ID : V_MPEG4/ISO/AVC

  23. Duration : 1 h 54 min

  24. Bit rate : 19.6 Mb/s

  25. Width : 1 920 pixels

  26. Height : 830 pixels

  27. Display aspect ratio : 2.35:1

  28. Frame rate mode : Constant

  29. Frame rate : 24.000 FPS

  30. Color space : YUV

  31. Chroma subsampling : 4:2:0

  32. Bit depth : 8 bits

  33. Scan type : Progressive

  34. Bits/(Pixel*Frame) : 0.512

  35. Stream size : 15.7 GiB (97%)

  36. Language : English

  37. Default : Yes

  38. Forced : No


  39. Audio #1

  40. ID : 2

  41. Format : AAC LC

  42. Format/Info : Advanced Audio Codec Low Complexity

  43. Codec ID : A_AAC-2

  44. Duration : 1 h 54 min

  45. Bit rate : 317 kb/s

  46. Channel(s) : 2 channels

  47. Channel layout : L R

  48. Sampling rate : 48.0 kHz

  49. Frame rate : 46.875 FPS (1024 SPF)

  50. Compression mode : Lossy

  51. Stream size : 261 MiB (2%)

  52. Language : Chinese

  53. Default : Yes

  54. Forced : No


  55. Audio #2

  56. ID : 3

  57. Format : AAC LC

  58. Format/Info : Advanced Audio Codec Low Complexity

  59. Codec ID : A_AAC-2

  60. Duration : 1 h 54 min

  61. Bit rate : 317 kb/s

  62. Channel(s) : 2 channels

  63. Channel layout : L R

  64. Sampling rate : 48.0 kHz

  65. Frame rate : 46.875 FPS (1024 SPF)

  66. Compression mode : Lossy

  67. Stream size : 261 MiB (2%)

  68. Language : English

  69. Default : No

  70. Forced : No



文件下载


除非特别注明,本文『人之怒[国英多音轨].Wrath.Of.Man.2021.1080p.WEB-DL.AAC.H264 16.22GB』来源于互联网机器人自动抓取,非本站原创。 浮游电影网不对本文拥有版权,如有侵犯,请联系邮箱:fuyouu#yandex.com[#换成@]投诉。我们会在15个工作日内删除。 但烦请转载时请标明出处:“本文转载于『浮游电影网』,原文地址:https://www.fuyouu.com/13406.html

评论吧骚年!

发表你的见解   

昵称*

E-mail*(建议输入,以便收到博主回复的提示邮件)

验证码*

您可以使用eMule或eMule Mod(Windows)、aMule(Win、Linux、Mac)等软件下载eD2k链接。。
eMule收藏集(.emulecollection)文件是您选中的所有链接的列表文件。eMule可以直接下载它们。
按住SHIFT键选择可以选中多个选择框。
可用文件名和大小选择器来选择文件。
文件名选择器帮您根据文件名称或后缀来选择文件。不分大小写。
符号使用:
和:空格( )、+
不包含:-
或:|
转义:一对英文引号("");
匹配开头:^
匹配结尾:$
例如:
选中所有名称中包含有“eMule”或“0.49c”字眼,但不包含有“exe”字眼的:emule|0.49c -exe
选中所有名称的开头是“eMule”,结尾是“0.49c”的:^emule 0.49c$
选中所有名称中带有“eMule 0.49c”的(必须是“eMule 0.49c”,中间没有别的字符,不能是“eMule fake 0.49c”),需要转义:"emule 0.49c"
大小选择器帮您根据文件大小选择文件。