当前位置: 首页 >> 海外电影 >> 猛鬼实验室[简繁字幕].Ghost.Lab.2021.Netflix.WEB-DL.1080P.x264.DDP5.1 8.00GB >> 正文

猛鬼实验室[简繁字幕].Ghost.Lab.2021.Netflix.WEB-DL.1080P.x264.DDP5.1 8.00GB

2021年08月06日 11:15:04     电影发布:来源于网络     电影分类:海外电影     评论(0)    

猛鬼实验室[简繁字幕].Ghost.Lab.2021.Netflix.WEB DL.1080P.x264.DDP5.1 8.00GB 恐怖片 惊悚片 剧情片 海外电影  第1张

◎译 名 猛鬼实验室 / 亡灵实验室 / 鬼魂实验室 / Ghost Lab

◎片 名 ????????????

◎年 代 2021

◎产 地 泰国

◎类 别 剧情 / 惊悚 / 恐怖

◎语 言 泰语

◎上映日期 2021-05-26(泰国)

◎IMDb链接 https://www.imdb.com/title/tt13446126/

◎豆瓣评分 5.6/10 (2171人评价)

◎豆瓣链接 https://movie.douban.com/subject/35230511/

◎片 长 117分钟

◎导 演 巴域·普瑞克潘也 Paween Purikitpanya (id:1311979)

◎编 剧 瓦苏红·皮娅罗姆娜 Vasudhorn Piyaromna (id:1378770)

托萨风·利安堂 Tossaphon Riantong (id:1406437)

◎演 员 朋抔·里拉塔纳卡邹 Thanapob Leeratanakajorn (id:1342141)

帕瑞斯·因塔拉科玛亚苏特 Paris Intarakomalyasut (id:1422872)

娜塔妮查·纳瓦塔纳瓦尼 Nuttanicha Dungwattanawanich (id:1342677)

◎标 签 恐怖 / 泰国 / 惊悚 / 泰国电影 / 悬疑 / 2021 / 剧情 / 双男主

◎简 介

两位医生朋友格拉和阿威在进行一项关于来世的研究实验,结果他们亲眼看到“鬼魂”,并由此一发不可收拾,决心要为幽灵和来世的存在寻找科学解释。他们的狂热和对未知不计后果的追求如同一个无底洞,将危及他们的友谊和至亲之人。

  1. ##### MediaInfo ######

  2. General

  3. Unique ID : 76486055603990313124316582959171269457 (0x398AADB0F801A470975269F343687351)

  4. Complete name : Ghost.Lab.2021.Netflix.WEB-DL.1080P.x264.DDP5.1-10006@BBQDDQ.COM.mkv

  5. Format : Matroska

  6. Format version : Version 4

  7. File size : 8.00 GiB

  8. Duration : 1 h 57 min

  9. Overall bit rate : 9 748 kb/s

  10. Encoded date : UTC 2021-08-04 11:17:13

  11. Writing application : mkvmerge v58.0.0 ('Supper's Ready') 64-bit

  12. Writing library : libebml v1.4.2 + libmatroska v1.6.4


  13. Video

  14. ID : 1

  15. Format : AVC

  16. Format/Info : Advanced Video Codec

  17. Format profile : High@L4

  18. Format settings : CABAC / 4 Ref Frames

  19. Format settings, CABAC : Yes

  20. Format settings, Reference frames : 4 frames

  21. Codec ID : V_MPEG4/ISO/AVC

  22. Duration : 1 h 57 min

  23. Bit rate : 7 184 kb/s

  24. Width : 1 920 pixels

  25. Height : 1 080 pixels

  26. Display aspect ratio : 16:9

  27. Frame rate mode : Constant

  28. Frame rate : 24.000 FPS

  29. Color space : YUV

  30. Chroma subsampling : 4:2:0

  31. Bit depth : 8 bits

  32. Scan type : Progressive

  33. Bits/(Pixel*Frame) : 0.144

  34. Stream size : 5.90 GiB (74%)

  35. Default : Yes

  36. Forced : No


  37. Audio #1

  38. ID : 2

  39. Format : E-AC-3

  40. Format/Info : Enhanced AC-3

  41. Commercial name : Dolby Digital Plus

  42. Codec ID : A_EAC3

  43. Duration : 1 h 57 min

  44. Bit rate mode : Constant

  45. Bit rate : 640 kb/s

  46. Channel(s) : 6 channels

  47. Channel layout : L R C LFE Ls Rs

  48. Sampling rate : 48.0 kHz

  49. Frame rate : 31.250 FPS (1536 SPF)

  50. Compression mode : Lossy

  51. Delay relative to video : -83 ms

  52. Stream size : 538 MiB (7%)

  53. Title : English

  54. Language : English

  55. Service kind : Complete Main

  56. Default : Yes

  57. Forced : No


  58. Audio #2

  59. ID : 3

  60. Format : E-AC-3

  61. Format/Info : Enhanced AC-3

  62. Commercial name : Dolby Digital Plus

  63. Codec ID : A_EAC3

  64. Duration : 1 h 57 min

  65. Bit rate mode : Constant

  66. Bit rate : 640 kb/s

  67. Channel(s) : 6 channels

  68. Channel layout : L R C LFE Ls Rs

  69. Sampling rate : 48.0 kHz

  70. Frame rate : 31.250 FPS (1536 SPF)

  71. Compression mode : Lossy

  72. Delay relative to video : -83 ms

  73. Stream size : 538 MiB (7%)

  74. Title : Espa?ol

  75. Language : Spanish

  76. Service kind : Complete Main

  77. Default : Yes

  78. Forced : No


  79. Audio #3

  80. ID : 4

  81. Format : E-AC-3

  82. Format/Info : Enhanced AC-3

  83. Commercial name : Dolby Digital Plus

  84. Codec ID : A_EAC3

  85. Duration : 1 h 57 min

  86. Bit rate mode : Constant

  87. Bit rate : 640 kb/s

  88. Channel(s) : 6 channels

  89. Channel layout : L R C LFE Ls Rs

  90. Sampling rate : 48.0 kHz

  91. Frame rate : 31.250 FPS (1536 SPF)

  92. Compression mode : Lossy

  93. Delay relative to video : -83 ms

  94. Stream size : 538 MiB (7%)

  95. Title : Português

  96. Language : Portuguese

  97. Service kind : Complete Main

  98. Default : Yes

  99. Forced : No


  100. Audio #4

  101. ID : 5

  102. Format : E-AC-3

  103. Format/Info : Enhanced AC-3

  104. Commercial name : Dolby Digital Plus

  105. Codec ID : A_EAC3

  106. Duration : 1 h 57 min

  107. Bit rate mode : Constant

  108. Bit rate : 640 kb/s

  109. Channel(s) : 6 channels

  110. Channel layout : L R C LFE Ls Rs

  111. Sampling rate : 48.0 kHz

  112. Frame rate : 31.250 FPS (1536 SPF)

  113. Compression mode : Lossy

  114. Delay relative to video : -83 ms

  115. Stream size : 538 MiB (7%)

  116. Title : ???????

  117. Language : Thai

  118. Service kind : Complete Main

  119. Default : Yes

  120. Forced : No


  121. Text #1

  122. ID : 6

  123. Format : UTF-8

  124. Codec ID : S_TEXT/UTF8

  125. Codec ID/Info : UTF-8 Plain Text

  126. Duration : 1 h 56 min

  127. Bit rate : 57 b/s

  128. Count of elements : 1066

  129. Stream size : 49.3 KiB (0%)

  130. Title : ???????

  131. Language : Arabic

  132. Default : Yes

  133. Forced : No


  134. Text #2

  135. ID : 7

  136. Format : UTF-8

  137. Codec ID : S_TEXT/UTF8

  138. Codec ID/Info : UTF-8 Plain Text

  139. Duration : 1 h 56 min

  140. Bit rate : 34 b/s

  141. Count of elements : 1008

  142. Stream size : 29.1 KiB (0%)

  143. Title : Deutsch

  144. Language : German

  145. Default : Yes

  146. Forced : No


  147. Text #3

  148. ID : 8

  149. Format : UTF-8

  150. Codec ID : S_TEXT/UTF8

  151. Codec ID/Info : UTF-8 Plain Text

  152. Duration : 1 h 56 min

  153. Bit rate : 33 b/s

  154. Count of elements : 1021

  155. Stream size : 28.4 KiB (0%)

  156. Title : English

  157. Language : English

  158. Default : Yes

  159. Forced : No


  160. Text #4

  161. ID : 9

  162. Format : UTF-8

  163. Codec ID : S_TEXT/UTF8

  164. Codec ID/Info : UTF-8 Plain Text

  165. Duration : 1 h 56 min

  166. Bit rate : 34 b/s

  167. Count of elements : 1005

  168. Stream size : 29.8 KiB (0%)

  169. Title : Espa?ol

  170. Language : Spanish

  171. Default : Yes

  172. Forced : No


  173. Text #5

  174. ID : 10

  175. Format : UTF-8

  176. Codec ID : S_TEXT/UTF8

  177. Codec ID/Info : UTF-8 Plain Text

  178. Duration : 1 h 56 min

  179. Bit rate : 30 b/s

  180. Count of elements : 1028

  181. Stream size : 26.4 KiB (0%)

  182. Title : Europa Espa?ol

  183. Language : Spanish

  184. Default : Yes

  185. Forced : No


  186. Text #6

  187. ID : 11

  188. Format : UTF-8

  189. Codec ID : S_TEXT/UTF8

  190. Codec ID/Info : UTF-8 Plain Text

  191. Duration : 1 h 56 min

  192. Bit rate : 34 b/s

  193. Count of elements : 1048

  194. Stream size : 29.5 KiB (0%)

  195. Title : Fran?ais

  196. Language : French

  197. Default : Yes

  198. Forced : No


  199. Text #7

  200. ID : 12

  201. Format : UTF-8

  202. Codec ID : S_TEXT/UTF8

  203. Codec ID/Info : UTF-8 Plain Text

  204. Duration : 1 h 56 min

  205. Bit rate : 33 b/s

  206. Count of elements : 1066

  207. Stream size : 28.6 KiB (0%)

  208. Title : Indonesian

  209. Language : Indonesian

  210. Default : Yes

  211. Forced : No


  212. Text #8

  213. ID : 13

  214. Format : UTF-8

  215. Codec ID : S_TEXT/UTF8

  216. Codec ID/Info : UTF-8 Plain Text

  217. Duration : 1 h 56 min

  218. Bit rate : 32 b/s

  219. Count of elements : 999

  220. Stream size : 27.8 KiB (0%)

  221. Title : Italian

  222. Language : Italian

  223. Default : Yes

  224. Forced : No


  225. Text #9

  226. ID : 14

  227. Format : UTF-8

  228. Codec ID : S_TEXT/UTF8

  229. Codec ID/Info : UTF-8 Plain Text

  230. Duration : 1 h 56 min

  231. Bit rate : 58 b/s

  232. Count of elements : 965

  233. Stream size : 49.7 KiB (0%)

  234. Title : 日本

  235. Language : Japanese

  236. Default : Yes

  237. Forced : No


  238. Text #10

  239. ID : 15

  240. Format : UTF-8

  241. Codec ID : S_TEXT/UTF8

  242. Codec ID/Info : UTF-8 Plain Text

  243. Duration : 1 h 56 min

  244. Bit rate : 37 b/s

  245. Count of elements : 1060

  246. Stream size : 32.0 KiB (0%)

  247. Title : ???

  248. Language : Korean

  249. Default : Yes

  250. Forced : No


  251. Text #11

  252. ID : 16

  253. Format : UTF-8

  254. Codec ID : S_TEXT/UTF8

  255. Codec ID/Info : UTF-8 Plain Text

  256. Duration : 1 h 56 min

  257. Bit rate : 33 b/s

  258. Count of elements : 997

  259. Stream size : 28.8 KiB (0%)

  260. Title : Malaysia

  261. Language : Malay

  262. Default : Yes

  263. Forced : No


  264. Text #12

  265. ID : 17

  266. Format : UTF-8

  267. Codec ID : S_TEXT/UTF8

  268. Codec ID/Info : UTF-8 Plain Text

  269. Duration : 1 h 56 min

  270. Bit rate : 34 b/s

  271. Count of elements : 1011

  272. Stream size : 29.2 KiB (0%)

  273. Title : Português

  274. Language : Portuguese

  275. Default : Yes

  276. Forced : No


  277. Text #13

  278. ID : 18

  279. Format : UTF-8

  280. Codec ID : S_TEXT/UTF8

  281. Codec ID/Info : UTF-8 Plain Text

  282. Duration : 1 h 56 min

  283. Bit rate : 34 b/s

  284. Count of elements : 1047

  285. Stream size : 29.2 KiB (0%)

  286. Title : Brasil Português

  287. Language : Portuguese

  288. Default : Yes

  289. Forced : No


  290. Text #14

  291. ID : 19

  292. Format : UTF-8

  293. Codec ID : S_TEXT/UTF8

  294. Codec ID/Info : UTF-8 Plain Text

  295. Duration : 1 h 56 min

  296. Bit rate : 89 b/s

  297. Count of elements : 1199

  298. Stream size : 76.2 KiB (0%)

  299. Title : ???????

  300. Language : Thai

  301. Default : Yes

  302. Forced : No


  303. Text #15

  304. ID : 20

  305. Format : UTF-8

  306. Codec ID : S_TEXT/UTF8

  307. Codec ID/Info : UTF-8 Plain Text

  308. Duration : 1 h 56 min

  309. Bit rate : 43 b/s

  310. Count of elements : 1035

  311. Stream size : 37.5 KiB (0%)

  312. Title : Ti?ng Vi?t

  313. Language : Vietnamese

  314. Default : Yes

  315. Forced : No


  316. Text #16

  317. ID : 21

  318. Format : UTF-8

  319. Codec ID : S_TEXT/UTF8

  320. Codec ID/Info : UTF-8 Plain Text

  321. Duration : 1 h 56 min

  322. Bit rate : 32 b/s

  323. Count of elements : 1044

  324. Stream size : 27.8 KiB (0%)

  325. Title : Simplified Chinese

  326. Language : Chinese

  327. Default : Yes

  328. Forced : No


  329. Text #17

  330. ID : 22

  331. Format : UTF-8

  332. Codec ID : S_TEXT/UTF8

  333. Codec ID/Info : UTF-8 Plain Text

  334. Duration : 1 h 56 min

  335. Bit rate : 32 b/s

  336. Count of elements : 1062

  337. Stream size : 27.6 KiB (0%)

  338. Title : Traditional Chinese

  339. Language : Chinese

  340. Default : Yes

  341. Forced : No


文件下载


除非特别注明,本文『猛鬼实验室[简繁字幕].Ghost.Lab.2021.Netflix.WEB-DL.1080P.x264.DDP5.1 8.00GB』来源于互联网机器人自动抓取,非本站原创。 浮游电影网不对本文拥有版权,如有侵犯,请联系邮箱:fuyouu#yandex.com[#换成@]投诉。我们会在15个工作日内删除。 但烦请转载时请标明出处:“本文转载于『浮游电影网』,原文地址:https://5.189.174.242/13400.html

评论吧骚年!

发表你的见解   

昵称*

E-mail*(建议输入,以便收到博主回复的提示邮件)

验证码*

您可以使用eMule或eMule Mod(Windows)、aMule(Win、Linux、Mac)等软件下载eD2k链接。。
eMule收藏集(.emulecollection)文件是您选中的所有链接的列表文件。eMule可以直接下载它们。
按住SHIFT键选择可以选中多个选择框。
可用文件名和大小选择器来选择文件。
文件名选择器帮您根据文件名称或后缀来选择文件。不分大小写。
符号使用:
和:空格( )、+
不包含:-
或:|
转义:一对英文引号("");
匹配开头:^
匹配结尾:$
例如:
选中所有名称中包含有“eMule”或“0.49c”字眼,但不包含有“exe”字眼的:emule|0.49c -exe
选中所有名称的开头是“eMule”,结尾是“0.49c”的:^emule 0.49c$
选中所有名称中带有“eMule 0.49c”的(必须是“eMule 0.49c”,中间没有别的字符,不能是“eMule fake 0.49c”),需要转义:"emule 0.49c"
大小选择器帮您根据文件大小选择文件。