当前位置: 首页 >> 欧美电影 >> 反同运动的前世今生[简繁字幕].Pray.Away.2021.NF.1080p.WEB-DL.DDP5.1.H264 5.27GB >> 正文

反同运动的前世今生[简繁字幕].Pray.Away.2021.NF.1080p.WEB-DL.DDP5.1.H264 5.27GB

2021年08月04日 22:52:14     电影发布:来源于网络     电影分类:欧美电影     评论(0)    

反同运动的前世今生[简繁字幕].Pray.Away.2021.NF.1080p.WEB DL.DDP5.1.H264 5.27GB 纪录片 欧美电影  第1张

◎译 名 反同运动的前世今生

◎片 名 Pray Away

◎年 代 2020

◎产 地 美国

◎类 别 纪录片

◎语 言 英语

◎上映日期 2020-04-15(美国) / 2021-08-03(美国网络)

◎IMDb链接 https://www.imdb.com/title/tt11224358/

◎豆瓣链接 https://movie.douban.com/subject/35166320/

◎演 员 诺拉·克罗尔-罗森鲍姆 Nora Kroll-Rosenbaum (id:1452109)

◎标 签 纪录片 / LGBT / 2021 / 美国纪录片 / 美国 / Queer / Netflix / 2021纪

◎简 介

本片采访了前性向矫正运动的参与者和幸存者,讲述了所谓的性向矫正对性少数群体带来的伤害,以及它的兴衰。

  1. ##### MediaInfo ######

  2. General

  3. Unique ID : 97215486070547120992829426958355977419 (0x492305857D637F3782B979E78570D4CB)

  4. Complete name : Pray.Away.2021.NF.1080p.WEB-DL.DDP5.1.H264-10006@BBQDDQ.COM.mkv

  5. Format : Matroska

  6. Format version : Version 4

  7. File size : 5.27 GiB

  8. Duration : 1 h 41 min

  9. Overall bit rate mode : Variable

  10. Overall bit rate : 7 412 kb/s

  11. Encoded date : UTC 2021-08-03 15:01:47

  12. Writing application : mkvmerge v60.0.0 ('Are We Copies?') 64-bit

  13. Writing library : libebml v1.4.2 + libmatroska v1.6.4


  14. Video

  15. ID : 1

  16. Format : AVC

  17. Format/Info : Advanced Video Codec

  18. Format profile : High@L4

  19. Format settings : CABAC / 4 Ref Frames

  20. Format settings, CABAC : Yes

  21. Format settings, Reference frames : 4 frames

  22. Codec ID : V_MPEG4/ISO/AVC

  23. Duration : 1 h 41 min

  24. Bit rate mode : Variable

  25. Bit rate : 6 766 kb/s

  26. Maximum bit rate : 20.0 Mb/s

  27. Width : 1 920 pixels

  28. Height : 1 080 pixels

  29. Display aspect ratio : 16:9

  30. Frame rate mode : Constant

  31. Frame rate : 23.976 (24000/1001/53354) FPS

  32. Color space : YUV

  33. Chroma subsampling : 4:2:0

  34. Bit depth : 8 bits

  35. Scan type : Progressive

  36. Bits/(Pixel*Frame) : 0.136

  37. Stream size : 4.81 GiB (91%)

  38. Writing library : x264 core 148 r2722 1b0121b

  39. Encoding settings : cabac=1 / ref=4 / deblock=1:0:0 / analyse=0x3:0x111 / me=umh / subme=10 / psy=1 / psy_rd=1.00:0.00 / mixed_ref=1 / me_range=120 / chroma_me=1 / trellis=2 / 8x8dct=1 / cqm=0 / deadzone=21,11 / fast_pskip=1 / chroma_qp_offset=-2 / threads=6 / lookahead_threads=1 / sliced_threads=0 / nr=0 / decimate=1 / interlaced=0 / NTMzNTQ= / bluray_compat=0 / stitchable=1 / constrained_intra=0 / bframes=16 / b_pyramid=2 / b_adapt=2 / b_bias=0 / direct=3 / weightb=1 / open_gop=0 / weightp=2 / keyint=240 / keyint_min=121 / scenecut=0 / intra_refresh=0 / rc_lookahead=240 / rc=crf / mbtree=1 / crf=16.0 / qcomp=0.50 / qpmin=6 / qpmax=51 / qpstep=4 / vbv_maxrate=20000 / vbv_bufsize=25000 / crf_max=0.0 / nal_hrd=vbr / filler=0 / NTMzNTQ=LmsMAP37EqsCpk / ip_ratio=1.40 / aq=1:0.80

  40. Default : Yes

  41. Forced : No


  42. Audio

  43. ID : 2

  44. Format : E-AC-3

  45. Format/Info : Enhanced AC-3

  46. Commercial name : Dolby Digital Plus

  47. Codec ID : A_EAC3

  48. Duration : 1 h 41 min

  49. Bit rate mode : Constant

  50. Bit rate : 640 kb/s

  51. Channel(s) : 6 channels

  52. Channel layout : L R C LFE Ls Rs

  53. Sampling rate : 48.0 kHz

  54. Frame rate : 31.250 FPS (1536 SPF)

  55. Compression mode : Lossy

  56. Stream size : 466 MiB (9%)

  57. Service kind : Complete Main

  58. Default : Yes

  59. Forced : No


  60. Text #1

  61. ID : 3

  62. Format : UTF-8

  63. Codec ID : S_TEXT/UTF8

  64. Codec ID/Info : UTF-8 Plain Text

  65. Duration : 1 h 40 min

  66. Bit rate : 132 b/s

  67. Count of elements : 1525

  68. Stream size : 97.9 KiB (0%)

  69. Language : Arabic

  70. Default : Yes

  71. Forced : No


  72. Text #2

  73. ID : 4

  74. Format : UTF-8

  75. Codec ID : S_TEXT/UTF8

  76. Codec ID/Info : UTF-8 Plain Text

  77. Duration : 1 h 40 min

  78. Bit rate : 78 b/s

  79. Count of elements : 1498

  80. Stream size : 58.3 KiB (0%)

  81. Language : Czech

  82. Default : Yes

  83. Forced : No


  84. Text #3

  85. ID : 5

  86. Format : UTF-8

  87. Codec ID : S_TEXT/UTF8

  88. Codec ID/Info : UTF-8 Plain Text

  89. Duration : 1 h 40 min

  90. Bit rate : 76 b/s

  91. Count of elements : 1317

  92. Stream size : 56.5 KiB (0%)

  93. Language : Danish

  94. Default : Yes

  95. Forced : No


  96. Text #4

  97. ID : 6

  98. Format : UTF-8

  99. Codec ID : S_TEXT/UTF8

  100. Codec ID/Info : UTF-8 Plain Text

  101. Duration : 1 h 40 min

  102. Bit rate : 21 b/s

  103. Count of elements : 384

  104. Stream size : 16.0 KiB (0%)

  105. Default : Yes

  106. Forced : No


  107. Text #5

  108. ID : 7

  109. Format : UTF-8

  110. Codec ID : S_TEXT/UTF8

  111. Codec ID/Info : UTF-8 Plain Text

  112. Duration : 1 h 40 min

  113. Bit rate : 80 b/s

  114. Count of elements : 1452

  115. Stream size : 59.7 KiB (0%)

  116. Language : German

  117. Default : Yes

  118. Forced : No


  119. Text #6

  120. ID : 8

  121. Format : UTF-8

  122. Codec ID : S_TEXT/UTF8

  123. Codec ID/Info : UTF-8 Plain Text

  124. Duration : 1 h 40 min

  125. Bit rate : 135 b/s

  126. Count of elements : 1470

  127. Stream size : 100 KiB (0%)

  128. Language : Greek

  129. Default : Yes

  130. Forced : No


  131. Text #7

  132. ID : 9

  133. Format : UTF-8

  134. Codec ID : S_TEXT/UTF8

  135. Codec ID/Info : UTF-8 Plain Text

  136. Duration : 1 min 12 s

  137. Bit rate : 70 b/s

  138. Count of elements : 26

  139. Stream size : 643 Bytes (0%)

  140. Default : Yes

  141. Forced : No


  142. Text #8

  143. ID : 10

  144. Format : UTF-8

  145. Codec ID : S_TEXT/UTF8

  146. Codec ID/Info : UTF-8 Plain Text

  147. Duration : 1 h 37 min

  148. Bit rate : 97 b/s

  149. Count of elements : 1631

  150. Stream size : 69.7 KiB (0%)

  151. Language : English

  152. Default : Yes

  153. Forced : No


  154. Text #9

  155. ID : 11

  156. Format : UTF-8

  157. Codec ID : S_TEXT/UTF8

  158. Codec ID/Info : UTF-8 Plain Text

  159. Duration : 1 h 40 min

  160. Bit rate : 20 b/s

  161. Count of elements : 386

  162. Stream size : 15.2 KiB (0%)

  163. Default : Yes

  164. Forced : No


  165. Text #10

  166. ID : 12

  167. Format : UTF-8

  168. Codec ID : S_TEXT/UTF8

  169. Codec ID/Info : UTF-8 Plain Text

  170. Duration : 1 h 40 min

  171. Bit rate : 75 b/s

  172. Count of elements : 1472

  173. Stream size : 55.8 KiB (0%)

  174. Default : Yes

  175. Forced : No


  176. Text #11

  177. ID : 13

  178. Format : UTF-8

  179. Codec ID : S_TEXT/UTF8

  180. Codec ID/Info : UTF-8 Plain Text

  181. Duration : 1 h 40 min

  182. Bit rate : 22 b/s

  183. Count of elements : 401

  184. Stream size : 16.3 KiB (0%)

  185. Default : Yes

  186. Forced : No


  187. Text #12

  188. ID : 14

  189. Format : UTF-8

  190. Codec ID : S_TEXT/UTF8

  191. Codec ID/Info : UTF-8 Plain Text

  192. Duration : 1 h 40 min

  193. Bit rate : 81 b/s

  194. Count of elements : 1504

  195. Stream size : 60.1 KiB (0%)

  196. Language : Spanish

  197. Default : Yes

  198. Forced : No


  199. Text #13

  200. ID : 15

  201. Format : UTF-8

  202. Codec ID : S_TEXT/UTF8

  203. Codec ID/Info : UTF-8 Plain Text

  204. Duration : 1 h 40 min

  205. Bit rate : 79 b/s

  206. Count of elements : 1118

  207. Stream size : 58.6 KiB (0%)

  208. Language : Finnish

  209. Default : Yes

  210. Forced : No


  211. Text #14

  212. ID : 16

  213. Format : UTF-8

  214. Codec ID : S_TEXT/UTF8

  215. Codec ID/Info : UTF-8 Plain Text

  216. Duration : 1 h 40 min

  217. Bit rate : 21 b/s

  218. Count of elements : 392

  219. Stream size : 16.1 KiB (0%)

  220. Default : Yes

  221. Forced : No


  222. Text #15

  223. ID : 17

  224. Format : UTF-8

  225. Codec ID : S_TEXT/UTF8

  226. Codec ID/Info : UTF-8 Plain Text

  227. Duration : 1 h 40 min

  228. Bit rate : 81 b/s

  229. Count of elements : 1491

  230. Stream size : 60.4 KiB (0%)

  231. Language : French

  232. Default : Yes

  233. Forced : No


  234. Text #16

  235. ID : 18

  236. Format : UTF-8

  237. Codec ID : S_TEXT/UTF8

  238. Codec ID/Info : UTF-8 Plain Text

  239. Duration : 1 h 40 min

  240. Bit rate : 131 b/s

  241. Count of elements : 1464

  242. Stream size : 97.4 KiB (0%)

  243. Language : Hebrew

  244. Default : Yes

  245. Forced : No


  246. Text #17

  247. ID : 19

  248. Format : UTF-8

  249. Codec ID : S_TEXT/UTF8

  250. Codec ID/Info : UTF-8 Plain Text

  251. Duration : 1 h 40 min

  252. Bit rate : 77 b/s

  253. Count of elements : 1400

  254. Stream size : 57.4 KiB (0%)

  255. Language : Croatian

  256. Default : Yes

  257. Forced : No


  258. Text #18

  259. ID : 20

  260. Format : UTF-8

  261. Codec ID : S_TEXT/UTF8

  262. Codec ID/Info : UTF-8 Plain Text

  263. Duration : 1 h 40 min

  264. Bit rate : 85 b/s

  265. Count of elements : 1407

  266. Stream size : 63.4 KiB (0%)

  267. Language : Hungarian

  268. Default : Yes

  269. Forced : No


  270. Text #19

  271. ID : 21

  272. Format : UTF-8

  273. Codec ID : S_TEXT/UTF8

  274. Codec ID/Info : UTF-8 Plain Text

  275. Duration : 1 h 40 min

  276. Bit rate : 80 b/s

  277. Count of elements : 1441

  278. Stream size : 59.5 KiB (0%)

  279. Language : Indonesian

  280. Default : Yes

  281. Forced : No


  282. Text #20

  283. ID : 22

  284. Format : UTF-8

  285. Codec ID : S_TEXT/UTF8

  286. Codec ID/Info : UTF-8 Plain Text

  287. Duration : 1 h 40 min

  288. Bit rate : 22 b/s

  289. Count of elements : 392

  290. Stream size : 16.8 KiB (0%)

  291. Default : Yes

  292. Forced : No


  293. Text #21

  294. ID : 23

  295. Format : UTF-8

  296. Codec ID : S_TEXT/UTF8

  297. Codec ID/Info : UTF-8 Plain Text

  298. Duration : 1 h 40 min

  299. Bit rate : 79 b/s

  300. Count of elements : 1391

  301. Stream size : 58.8 KiB (0%)

  302. Language : Italian

  303. Default : Yes

  304. Forced : No


  305. Text #22

  306. ID : 24

  307. Format : UTF-8

  308. Codec ID : S_TEXT/UTF8

  309. Codec ID/Info : UTF-8 Plain Text

  310. Duration : 1 h 40 min

  311. Bit rate : 154 b/s

  312. Count of elements : 1494

  313. Stream size : 114 KiB (0%)

  314. Language : Japanese

  315. Default : Yes

  316. Forced : No


  317. Text #23

  318. ID : 25

  319. Format : UTF-8

  320. Codec ID : S_TEXT/UTF8

  321. Codec ID/Info : UTF-8 Plain Text

  322. Duration : 1 h 40 min

  323. Bit rate : 95 b/s

  324. Count of elements : 1539

  325. Stream size : 70.5 KiB (0%)

  326. Language : Korean

  327. Default : Yes

  328. Forced : No


  329. Text #24

  330. ID : 26

  331. Format : UTF-8

  332. Codec ID : S_TEXT/UTF8

  333. Codec ID/Info : UTF-8 Plain Text

  334. Duration : 1 h 40 min

  335. Bit rate : 77 b/s

  336. Count of elements : 1489

  337. Stream size : 57.6 KiB (0%)

  338. Language : Malay

  339. Default : Yes

  340. Forced : No


  341. Text #25

  342. ID : 27

  343. Format : UTF-8

  344. Codec ID : S_TEXT/UTF8

  345. Codec ID/Info : UTF-8 Plain Text

  346. Duration : 1 h 40 min

  347. Bit rate : 75 b/s

  348. Count of elements : 1296

  349. Stream size : 55.8 KiB (0%)

  350. Language : Norwegian Bokmal

  351. Default : Yes

  352. Forced : No


  353. Text #26

  354. ID : 28

  355. Format : UTF-8

  356. Codec ID : S_TEXT/UTF8

  357. Codec ID/Info : UTF-8 Plain Text

  358. Duration : 1 h 40 min

  359. Bit rate : 77 b/s

  360. Count of elements : 1378

  361. Stream size : 57.5 KiB (0%)

  362. Language : Dutch

  363. Default : Yes

  364. Forced : No


  365. Text #27

  366. ID : 29

  367. Format : UTF-8

  368. Codec ID : S_TEXT/UTF8

  369. Codec ID/Info : UTF-8 Plain Text

  370. Duration : 1 h 40 min

  371. Bit rate : 20 b/s

  372. Count of elements : 358

  373. Stream size : 15.3 KiB (0%)

  374. Default : Yes

  375. Forced : No


  376. Text #28

  377. ID : 30

  378. Format : UTF-8

  379. Codec ID : S_TEXT/UTF8

  380. Codec ID/Info : UTF-8 Plain Text

  381. Duration : 1 h 40 min

  382. Bit rate : 76 b/s

  383. Count of elements : 1306

  384. Stream size : 56.1 KiB (0%)

  385. Language : Polish

  386. Default : Yes

  387. Forced : No


  388. Text #29

  389. ID : 31

  390. Format : UTF-8

  391. Codec ID : S_TEXT/UTF8

  392. Codec ID/Info : UTF-8 Plain Text

  393. Duration : 1 h 40 min

  394. Bit rate : 22 b/s

  395. Count of elements : 380

  396. Stream size : 16.3 KiB (0%)

  397. Default : Yes

  398. Forced : No


  399. Text #30

  400. ID : 32

  401. Format : UTF-8

  402. Codec ID : S_TEXT/UTF8

  403. Codec ID/Info : UTF-8 Plain Text

  404. Duration : 1 h 40 min

  405. Bit rate : 81 b/s

  406. Count of elements : 1458

  407. Stream size : 60.0 KiB (0%)

  408. Default : Yes

  409. Forced : No


  410. Text #31

  411. ID : 33

  412. Format : UTF-8

  413. Codec ID : S_TEXT/UTF8

  414. Codec ID/Info : UTF-8 Plain Text

  415. Duration : 1 h 40 min

  416. Bit rate : 79 b/s

  417. Count of elements : 1432

  418. Stream size : 58.8 KiB (0%)

  419. Language : Portuguese

  420. Default : Yes

  421. Forced : No


  422. Text #32

  423. ID : 34

  424. Format : UTF-8

  425. Codec ID : S_TEXT/UTF8

  426. Codec ID/Info : UTF-8 Plain Text

  427. Duration : 1 h 40 min

  428. Bit rate : 80 b/s

  429. Count of elements : 1334

  430. Stream size : 59.2 KiB (0%)

  431. Language : Romanian

  432. Default : Yes

  433. Forced : No


  434. Text #33

  435. ID : 35

  436. Format : UTF-8

  437. Codec ID : S_TEXT/UTF8

  438. Codec ID/Info : UTF-8 Plain Text

  439. Duration : 1 h 40 min

  440. Bit rate : 135 b/s

  441. Count of elements : 1503

  442. Stream size : 100.0 KiB (0%)

  443. Language : Russian

  444. Default : Yes

  445. Forced : No


  446. Text #34

  447. ID : 36

  448. Format : UTF-8

  449. Codec ID : S_TEXT/UTF8

  450. Codec ID/Info : UTF-8 Plain Text

  451. Duration : 1 h 40 min

  452. Bit rate : 75 b/s

  453. Count of elements : 1264

  454. Stream size : 55.6 KiB (0%)

  455. Language : Swedish

  456. Default : Yes

  457. Forced : No


  458. Text #35

  459. ID : 37

  460. Format : UTF-8

  461. Codec ID : S_TEXT/UTF8

  462. Codec ID/Info : UTF-8 Plain Text

  463. Duration : 1 h 40 min

  464. Bit rate : 201 b/s

  465. Count of elements : 1526

  466. Stream size : 148 KiB (0%)

  467. Language : Thai

  468. Default : Yes

  469. Forced : No


  470. Text #36

  471. ID : 38

  472. Format : UTF-8

  473. Codec ID : S_TEXT/UTF8

  474. Codec ID/Info : UTF-8 Plain Text

  475. Duration : 1 h 40 min

  476. Bit rate : 21 b/s

  477. Count of elements : 308

  478. Stream size : 15.7 KiB (0%)

  479. Default : Yes

  480. Forced : No


  481. Text #37

  482. ID : 39

  483. Format : UTF-8

  484. Codec ID : S_TEXT/UTF8

  485. Codec ID/Info : UTF-8 Plain Text

  486. Duration : 1 h 40 min

  487. Bit rate : 80 b/s

  488. Count of elements : 1167

  489. Stream size : 59.5 KiB (0%)

  490. Language : Turkish

  491. Default : Yes

  492. Forced : No


  493. Text #38

  494. ID : 40

  495. Format : UTF-8

  496. Codec ID : S_TEXT/UTF8

  497. Codec ID/Info : UTF-8 Plain Text

  498. Duration : 1 h 40 min

  499. Bit rate : 134 b/s

  500. Count of elements : 1523

  501. Stream size : 99.6 KiB (0%)

  502. Language : Ukrainian

  503. Default : Yes

  504. Forced : No


  505. Text #39

  506. ID : 41

  507. Format : UTF-8

  508. Codec ID : S_TEXT/UTF8

  509. Codec ID/Info : UTF-8 Plain Text

  510. Duration : 1 h 40 min

  511. Bit rate : 104 b/s

  512. Count of elements : 1366

  513. Stream size : 77.3 KiB (0%)

  514. Language : Vietnamese

  515. Default : Yes

  516. Forced : No


  517. Text #40

  518. ID : 42

  519. Format : UTF-8

  520. Codec ID : S_TEXT/UTF8

  521. Codec ID/Info : UTF-8 Plain Text

  522. Duration : 1 h 40 min

  523. Bit rate : 75 b/s

  524. Count of elements : 1535

  525. Stream size : 55.5 KiB (0%)

  526. Title : Simplified Chinese

  527. Language : Chinese

  528. Default : Yes

  529. Forced : No


  530. Text #41

  531. ID : 43

  532. Format : UTF-8

  533. Codec ID : S_TEXT/UTF8

  534. Codec ID/Info : UTF-8 Plain Text

  535. Duration : 1 h 40 min

  536. Bit rate : 69 b/s

  537. Count of elements : 1440

  538. Stream size : 51.6 KiB (0%)

  539. Title : Traditional Chinese

  540. Language : Chinese

  541. Default : Yes

  542. Forced : No


文件下载


除非特别注明,本文『反同运动的前世今生[简繁字幕].Pray.Away.2021.NF.1080p.WEB-DL.DDP5.1.H264 5.27GB』来源于互联网机器人自动抓取,非本站原创。 浮游电影网不对本文拥有版权,如有侵犯,请联系邮箱:fuyouu#yandex.com[#换成@]投诉。我们会在15个工作日内删除。 但烦请转载时请标明出处:“本文转载于『浮游电影网』,原文地址:https://www.fuyouu.com/13377.html

评论吧骚年!

发表你的见解   

昵称*

E-mail*(建议输入,以便收到博主回复的提示邮件)

验证码*

您可以使用eMule或eMule Mod(Windows)、aMule(Win、Linux、Mac)等软件下载eD2k链接。。
eMule收藏集(.emulecollection)文件是您选中的所有链接的列表文件。eMule可以直接下载它们。
按住SHIFT键选择可以选中多个选择框。
可用文件名和大小选择器来选择文件。
文件名选择器帮您根据文件名称或后缀来选择文件。不分大小写。
符号使用:
和:空格( )、+
不包含:-
或:|
转义:一对英文引号("");
匹配开头:^
匹配结尾:$
例如:
选中所有名称中包含有“eMule”或“0.49c”字眼,但不包含有“exe”字眼的:emule|0.49c -exe
选中所有名称的开头是“eMule”,结尾是“0.49c”的:^emule 0.49c$
选中所有名称中带有“eMule 0.49c”的(必须是“eMule 0.49c”,中间没有别的字符,不能是“eMule fake 0.49c”),需要转义:"emule 0.49c"
大小选择器帮您根据文件大小选择文件。