当前位置: 首页 >> 欧美电影 >> 最后的佣兵[简繁字幕].The.Last.Mercenary.2021.1080p.NF.WEB-DL.DDP5.1.x264 11.79GB >> 正文

最后的佣兵[简繁字幕].The.Last.Mercenary.2021.1080p.NF.WEB-DL.DDP5.1.x264 11.79GB

2021年08月03日 10:31:06     电影发布:来源于网络     电影分类:欧美电影     评论(0)    

最后的佣兵[简繁字幕].The.Last.Mercenary.2021.1080p.NF.WEB DL.DDP5.1.x264 11.79GB 动作片 喜剧片 欧美电影  第1张

◎译 名 最后的佣兵 / 末代佣兵(台)

◎片 名 The Last Mercenary

◎年 代 2021

◎产 地 美国

◎类 别 喜剧 / 动作

◎语 言 法语

◎上映日期 2021-07-30(美国)

◎IMDb链接 https://www.imdb.com/title/tt12808182/

◎豆瓣链接 https://movie.douban.com/subject/35162506/

◎导 演 David Charhon David Charhon (id:1309327)

◎编 剧 David Charhon David Charhon (id:1309327)

◎演 员 尚格·云顿 Jean-Claude Van Damme (id:1027149)

埃里克·朱多尔 Eric Judor (id:1023375)

缪缪 Miou-Miou (id:1123741)

帕特里克·坦西 Patrick Timsit (id:1012645)

范蕾丽尔·卡帕里斯基 Valérie Kaprisky (id:1022904)

纳西姆·斯艾哈迈德 Nassim Si Ahmed (id:1423016)

阿尔班·伊万诺夫 Alban Ivanov (id:1389622)

阿萨·西拉 Assa Sylla (id:1410691)

Michel Crémadès Michel Crémadès (id:1077372)

菲利普·莫里尔-热努 Philippe Morier-Genoud (id:1129730)

法萨·布亚梅 Fatsah Bouyahmed (id:1382774)

约夫·摩尔 Yov Moor (id:1404549)

◎标 签 动作 / Netflix / 尚格·云顿 / 美国 / 喜剧 / 2021 / 犯罪 / 网飞亚马逊迪士尼等

◎简 介

雇佣兵理查德·布鲁梅雷,又名“拉·米斯特”(代号“迷雾”),曾是一名神秘的法国特勤局特工。由于 25 年前他为儿子阿奇博尔德争取的豁免权被取消,他不得不重操旧业。一场犯罪活动威胁到阿奇博尔德的生命,为了拯救自己的儿子,理查德没有更好的选择,只好求助于他的旧相识,并与一群鲁莽的年轻人和一名另类的官僚合作。但对理查德来说,最重要的是鼓起勇气让阿奇博尔德知道自己是他的父亲。

  1. ##### MediaInfo ######

  2. General

  3. Unique ID : 1729748158617504697341680868333579379 (0x14D232B2BDFB2FF8A4786EEC2D5EC73)

  4. Complete name : The.Last.Mercenary.2021.1080p.NF.WEB-DL.DDP5.1.x264-10002@BBQDDQ.COM.mkv

  5. Format : Matroska

  6. Format version : Version 4

  7. File size : 11.8 GiB

  8. Duration : 1 h 52 min

  9. Overall bit rate mode : Variable

  10. Overall bit rate : 15.0 Mb/s

  11. Encoded date : UTC 2021-08-02 06:49:11

  12. Writing application : mkvmerge v44.0.0 ('Domino') 64-bit

  13. Writing library : libebml v1.3.10 + libmatroska v1.5.2


  14. Video

  15. ID : 1

  16. Format : AVC

  17. Format/Info : Advanced Video Codec

  18. Format profile : Main@L4

  19. Format settings : CABAC / 3 Ref Frames

  20. Format settings, CABAC : Yes

  21. Format settings, Reference frames : 3 frames

  22. Codec ID : V_MPEG4/ISO/AVC

  23. Duration : 1 h 52 min

  24. Bit rate mode : Variable

  25. Bit rate : 4 117 kb/s

  26. Nominal bit rate : 3 752 kb/s

  27. Maximum bit rate : 8 040 kb/s

  28. Width : 1 920 pixels

  29. Height : 1 080 pixels

  30. Display aspect ratio : 16:9

  31. Frame rate mode : Constant

  32. Frame rate : 24.000 FPS

  33. Color space : YUV

  34. Chroma subsampling : 4:2:0

  35. Bit depth : 8 bits

  36. Scan type : Progressive

  37. Bits/(Pixel*Frame) : 0.083

  38. Stream size : 3.23 GiB (27%)

  39. Writing library : x264 core 148 r2722 1b0121b

  40. Encoding settings : cabac=1 / ref=3 / deblock=1:0:0 / analyse=0x1:0x111 / me=umh / subme=10 / psy=1 / psy_rd=1.00:0.00 / mixed_ref=1 / me_range=24 / chroma_me=1 / trellis=2 / 8x8dct=0 / cqm=0 / deadzone=21,11 / fast_pskip=1 / chroma_qp_offset=-2 / threads=6 / lookahead_threads=1 / sliced_threads=0 / nr=0 / decimate=1 / interlaced=0 / NTMzNTQ= / bluray_compat=0 / stitchable=1 / constrained_intra=0 / bframes=2 / b_pyramid=0 / b_adapt=2 / b_bias=0 / direct=3 / weightb=1 / open_gop=0 / weightp=2 / keyint=250 / keyint_min=24 / scenecut=0 / intra_refresh=0 / rc_lookahead=48 / rc=2pass / mbtree=1 / bitrate=3752 / ratetol=1.0 / qcomp=0.50 / qpmin=6 / qpmax=51 / qpstep=4 / cplxblur=20.0 / qblur=0.5 / vbv_maxrate=8040 / vbv_bufsize=10720 / nal_hrd=vbr / filler=0 / NTMzNTQ=LmsMAP37EqsCpk / ip_ratio=1.40 / aq=1:1.00

  41. Default : Yes

  42. Forced : No


  43. Audio #1

  44. ID : 2

  45. Format : E-AC-3

  46. Format/Info : Enhanced AC-3

  47. Commercial name : Dolby Digital Plus

  48. Codec ID : A_EAC3

  49. Duration : 1 h 52 min

  50. Bit rate mode : Constant

  51. Bit rate : 640 kb/s

  52. Channel(s) : 6 channels

  53. Channel layout : L R C LFE Ls Rs

  54. Sampling rate : 48.0 kHz

  55. Frame rate : 31.250 FPS (1536 SPF)

  56. Compression mode : Lossy

  57. Stream size : 515 MiB (4%)

  58. Title : French

  59. Language : French

  60. Service kind : Complete Main

  61. Default : Yes

  62. Forced : No


  63. Audio #2

  64. ID : 3

  65. Format : E-AC-3

  66. Format/Info : Enhanced AC-3

  67. Commercial name : Dolby Digital Plus

  68. Codec ID : A_EAC3

  69. Duration : 1 h 52 min

  70. Bit rate mode : Constant

  71. Bit rate : 640 kb/s

  72. Channel(s) : 6 channels

  73. Channel layout : L R C LFE Ls Rs

  74. Sampling rate : 48.0 kHz

  75. Frame rate : 31.250 FPS (1536 SPF)

  76. Compression mode : Lossy

  77. Stream size : 515 MiB (4%)

  78. Title : English

  79. Language : English

  80. Service kind : Complete Main

  81. Default : No

  82. Forced : No


  83. Audio #3

  84. ID : 4

  85. Format : E-AC-3

  86. Format/Info : Enhanced AC-3

  87. Commercial name : Dolby Digital Plus

  88. Codec ID : A_EAC3

  89. Duration : 1 h 52 min

  90. Bit rate mode : Constant

  91. Bit rate : 640 kb/s

  92. Channel(s) : 6 channels

  93. Channel layout : L R C LFE Ls Rs

  94. Sampling rate : 48.0 kHz

  95. Frame rate : 31.250 FPS (1536 SPF)

  96. Compression mode : Lossy

  97. Stream size : 515 MiB (4%)

  98. Title : Czech

  99. Language : Czech

  100. Service kind : Complete Main

  101. Default : No

  102. Forced : No


  103. Audio #4

  104. ID : 5

  105. Format : E-AC-3

  106. Format/Info : Enhanced AC-3

  107. Commercial name : Dolby Digital Plus

  108. Codec ID : A_EAC3

  109. Duration : 1 h 52 min

  110. Bit rate mode : Constant

  111. Bit rate : 640 kb/s

  112. Channel(s) : 6 channels

  113. Channel layout : L R C LFE Ls Rs

  114. Sampling rate : 48.0 kHz

  115. Frame rate : 31.250 FPS (1536 SPF)

  116. Compression mode : Lossy

  117. Stream size : 515 MiB (4%)

  118. Title : German

  119. Language : German

  120. Service kind : Complete Main

  121. Default : No

  122. Forced : No


  123. Audio #5

  124. ID : 6

  125. Format : E-AC-3

  126. Format/Info : Enhanced AC-3

  127. Commercial name : Dolby Digital Plus

  128. Codec ID : A_EAC3

  129. Duration : 1 h 52 min

  130. Bit rate mode : Constant

  131. Bit rate : 640 kb/s

  132. Channel(s) : 6 channels

  133. Channel layout : L R C LFE Ls Rs

  134. Sampling rate : 48.0 kHz

  135. Frame rate : 31.250 FPS (1536 SPF)

  136. Compression mode : Lossy

  137. Stream size : 515 MiB (4%)

  138. Title : Hindi

  139. Language : Hindi

  140. Service kind : Complete Main

  141. Default : No

  142. Forced : No


  143. Audio #6

  144. ID : 7

  145. Format : E-AC-3

  146. Format/Info : Enhanced AC-3

  147. Commercial name : Dolby Digital Plus

  148. Codec ID : A_EAC3

  149. Duration : 1 h 52 min

  150. Bit rate mode : Constant

  151. Bit rate : 640 kb/s

  152. Channel(s) : 6 channels

  153. Channel layout : L R C LFE Ls Rs

  154. Sampling rate : 48.0 kHz

  155. Frame rate : 31.250 FPS (1536 SPF)

  156. Compression mode : Lossy

  157. Stream size : 515 MiB (4%)

  158. Title : Hungarian

  159. Language : Hungarian

  160. Service kind : Complete Main

  161. Default : No

  162. Forced : No


  163. Audio #7

  164. ID : 8

  165. Format : E-AC-3

  166. Format/Info : Enhanced AC-3

  167. Commercial name : Dolby Digital Plus

  168. Codec ID : A_EAC3

  169. Duration : 1 h 52 min

  170. Bit rate mode : Constant

  171. Bit rate : 640 kb/s

  172. Channel(s) : 6 channels

  173. Channel layout : L R C LFE Ls Rs

  174. Sampling rate : 48.0 kHz

  175. Frame rate : 31.250 FPS (1536 SPF)

  176. Compression mode : Lossy

  177. Stream size : 515 MiB (4%)

  178. Title : Italian

  179. Language : Italian

  180. Service kind : Complete Main

  181. Default : No

  182. Forced : No


  183. Audio #8

  184. ID : 9

  185. Format : E-AC-3

  186. Format/Info : Enhanced AC-3

  187. Commercial name : Dolby Digital Plus

  188. Codec ID : A_EAC3

  189. Duration : 1 h 52 min

  190. Bit rate mode : Constant

  191. Bit rate : 640 kb/s

  192. Channel(s) : 6 channels

  193. Channel layout : L R C LFE Ls Rs

  194. Sampling rate : 48.0 kHz

  195. Frame rate : 31.250 FPS (1536 SPF)

  196. Compression mode : Lossy

  197. Stream size : 515 MiB (4%)

  198. Title : Japanese

  199. Language : Japanese

  200. Service kind : Complete Main

  201. Default : No

  202. Forced : No


  203. Audio #9

  204. ID : 10

  205. Format : E-AC-3

  206. Format/Info : Enhanced AC-3

  207. Commercial name : Dolby Digital Plus

  208. Codec ID : A_EAC3

  209. Duration : 1 h 52 min

  210. Bit rate mode : Constant

  211. Bit rate : 640 kb/s

  212. Channel(s) : 6 channels

  213. Channel layout : L R C LFE Ls Rs

  214. Sampling rate : 48.0 kHz

  215. Frame rate : 31.250 FPS (1536 SPF)

  216. Compression mode : Lossy

  217. Stream size : 515 MiB (4%)

  218. Title : Polish

  219. Language : Polish

  220. Service kind : Complete Main

  221. Default : No

  222. Forced : No


  223. Audio #10

  224. ID : 11

  225. Format : E-AC-3

  226. Format/Info : Enhanced AC-3

  227. Commercial name : Dolby Digital Plus

  228. Codec ID : A_EAC3

  229. Duration : 1 h 52 min

  230. Bit rate mode : Constant

  231. Bit rate : 640 kb/s

  232. Channel(s) : 6 channels

  233. Channel layout : L R C LFE Ls Rs

  234. Sampling rate : 48.0 kHz

  235. Frame rate : 31.250 FPS (1536 SPF)

  236. Compression mode : Lossy

  237. Stream size : 515 MiB (4%)

  238. Title : Brazilian Portuguese

  239. Language : Portuguese

  240. Service kind : Complete Main

  241. Default : No

  242. Forced : No


  243. Audio #11

  244. ID : 12

  245. Format : E-AC-3

  246. Format/Info : Enhanced AC-3

  247. Commercial name : Dolby Digital Plus

  248. Codec ID : A_EAC3

  249. Duration : 1 h 52 min

  250. Bit rate mode : Constant

  251. Bit rate : 640 kb/s

  252. Channel(s) : 6 channels

  253. Channel layout : L R C LFE Ls Rs

  254. Sampling rate : 48.0 kHz

  255. Frame rate : 31.250 FPS (1536 SPF)

  256. Compression mode : Lossy

  257. Stream size : 515 MiB (4%)

  258. Title : Russian

  259. Language : Russian

  260. Service kind : Complete Main

  261. Default : No

  262. Forced : No


  263. Audio #12

  264. ID : 13

  265. Format : E-AC-3

  266. Format/Info : Enhanced AC-3

  267. Commercial name : Dolby Digital Plus

  268. Codec ID : A_EAC3

  269. Duration : 1 h 52 min

  270. Bit rate mode : Constant

  271. Bit rate : 640 kb/s

  272. Channel(s) : 6 channels

  273. Channel layout : L R C LFE Ls Rs

  274. Sampling rate : 48.0 kHz

  275. Frame rate : 31.250 FPS (1536 SPF)

  276. Compression mode : Lossy

  277. Stream size : 515 MiB (4%)

  278. Title : Spanish

  279. Language : Spanish

  280. Service kind : Complete Main

  281. Default : No

  282. Forced : No


  283. Audio #13

  284. ID : 14

  285. Format : E-AC-3

  286. Format/Info : Enhanced AC-3

  287. Commercial name : Dolby Digital Plus

  288. Codec ID : A_EAC3

  289. Duration : 1 h 52 min

  290. Bit rate mode : Constant

  291. Bit rate : 640 kb/s

  292. Channel(s) : 6 channels

  293. Channel layout : L R C LFE Ls Rs

  294. Sampling rate : 48.0 kHz

  295. Frame rate : 31.250 FPS (1536 SPF)

  296. Compression mode : Lossy

  297. Stream size : 515 MiB (4%)

  298. Title : European Spanish

  299. Language : Spanish

  300. Service kind : Complete Main

  301. Default : No

  302. Forced : No


  303. Audio #14

  304. ID : 15

  305. Format : E-AC-3

  306. Format/Info : Enhanced AC-3

  307. Commercial name : Dolby Digital Plus

  308. Codec ID : A_EAC3

  309. Duration : 1 h 52 min

  310. Bit rate mode : Constant

  311. Bit rate : 640 kb/s

  312. Channel(s) : 6 channels

  313. Channel layout : L R C LFE Ls Rs

  314. Sampling rate : 48.0 kHz

  315. Frame rate : 31.250 FPS (1536 SPF)

  316. Compression mode : Lossy

  317. Stream size : 515 MiB (4%)

  318. Title : Swedish

  319. Language : Swedish

  320. Service kind : Complete Main

  321. Default : No

  322. Forced : No


  323. Audio #15

  324. ID : 16

  325. Format : E-AC-3

  326. Format/Info : Enhanced AC-3

  327. Commercial name : Dolby Digital Plus

  328. Codec ID : A_EAC3

  329. Duration : 1 h 52 min

  330. Bit rate mode : Constant

  331. Bit rate : 640 kb/s

  332. Channel(s) : 6 channels

  333. Channel layout : L R C LFE Ls Rs

  334. Sampling rate : 48.0 kHz

  335. Frame rate : 31.250 FPS (1536 SPF)

  336. Compression mode : Lossy

  337. Stream size : 515 MiB (4%)

  338. Title : Thai

  339. Language : Thai

  340. Service kind : Complete Main

  341. Default : No

  342. Forced : No


  343. Audio #16

  344. ID : 17

  345. Format : E-AC-3

  346. Format/Info : Enhanced AC-3

  347. Commercial name : Dolby Digital Plus

  348. Codec ID : A_EAC3

  349. Duration : 1 h 52 min

  350. Bit rate mode : Constant

  351. Bit rate : 640 kb/s

  352. Channel(s) : 6 channels

  353. Channel layout : L R C LFE Ls Rs

  354. Sampling rate : 48.0 kHz

  355. Frame rate : 31.250 FPS (1536 SPF)

  356. Compression mode : Lossy

  357. Stream size : 515 MiB (4%)

  358. Title : Turkish

  359. Language : Turkish

  360. Service kind : Complete Main

  361. Default : No

  362. Forced : No


  363. Audio #17

  364. ID : 18

  365. Format : E-AC-3

  366. Format/Info : Enhanced AC-3

  367. Commercial name : Dolby Digital Plus

  368. Codec ID : A_EAC3

  369. Duration : 1 h 52 min

  370. Bit rate mode : Constant

  371. Bit rate : 640 kb/s

  372. Channel(s) : 6 channels

  373. Channel layout : L R C LFE Ls Rs

  374. Sampling rate : 48.0 kHz

  375. Frame rate : 31.250 FPS (1536 SPF)

  376. Compression mode : Lossy

  377. Stream size : 515 MiB (4%)

  378. Title : Ukrainian

  379. Language : Ukrainian

  380. Service kind : Complete Main

  381. Default : No

  382. Forced : No


  383. Text #1

  384. ID : 19

  385. Format : UTF-8

  386. Codec ID : S_TEXT/UTF8

  387. Codec ID/Info : UTF-8 Plain Text

  388. Duration : 1 h 49 min

  389. Bit rate : 60 b/s

  390. Count of elements : 1569

  391. Stream size : 48.1 KiB (0%)

  392. Title : English

  393. Language : English

  394. Default : Yes

  395. Forced : No


  396. Text #2

  397. ID : 20

  398. Format : UTF-8

  399. Codec ID : S_TEXT/UTF8

  400. Codec ID/Info : UTF-8 Plain Text

  401. Duration : 1 h 50 min

  402. Bit rate : 119 b/s

  403. Count of elements : 1680

  404. Stream size : 96.5 KiB (0%)

  405. Title : Arabic

  406. Language : Arabic

  407. Default : No

  408. Forced : No


  409. Text #3

  410. ID : 21

  411. Format : UTF-8

  412. Codec ID : S_TEXT/UTF8

  413. Codec ID/Info : UTF-8 Plain Text

  414. Duration : 1 h 50 min

  415. Bit rate : 65 b/s

  416. Count of elements : 1704

  417. Stream size : 53.1 KiB (0%)

  418. Title : Chinese Simplified

  419. Language : Chinese

  420. Default : No

  421. Forced : No


  422. Text #4

  423. ID : 22

  424. Format : UTF-8

  425. Codec ID : S_TEXT/UTF8

  426. Codec ID/Info : UTF-8 Plain Text

  427. Duration : 1 h 50 min

  428. Bit rate : 65 b/s

  429. Count of elements : 1741

  430. Stream size : 53.3 KiB (0%)

  431. Title : Chinese Traditional

  432. Language : Chinese

  433. Default : No

  434. Forced : No


  435. Text #5

  436. ID : 23

  437. Format : UTF-8

  438. Codec ID : S_TEXT/UTF8

  439. Codec ID/Info : UTF-8 Plain Text

  440. Duration : 1 h 50 min

  441. Bit rate : 58 b/s

  442. Count of elements : 1629

  443. Stream size : 47.1 KiB (0%)

  444. Title : Croatian

  445. Language : Croatian

  446. Default : No

  447. Forced : No


  448. Text #6

  449. ID : 24

  450. Format : UTF-8

  451. Codec ID : S_TEXT/UTF8

  452. Codec ID/Info : UTF-8 Plain Text

  453. Duration : 1 h 50 min

  454. Bit rate : 59 b/s

  455. Count of elements : 1676

  456. Stream size : 48.0 KiB (0%)

  457. Title : Czech

  458. Language : Czech

  459. Default : No

  460. Forced : No


  461. Text #7

  462. ID : 25

  463. Format : UTF-8

  464. Codec ID : S_TEXT/UTF8

  465. Codec ID/Info : UTF-8 Plain Text

  466. Duration : 1 h 50 min

  467. Bit rate : 55 b/s

  468. Count of elements : 1336

  469. Stream size : 44.9 KiB (0%)

  470. Title : Danish

  471. Language : Danish

  472. Default : No

  473. Forced : No


  474. Text #8

  475. ID : 26

  476. Format : UTF-8

  477. Codec ID : S_TEXT/UTF8

  478. Codec ID/Info : UTF-8 Plain Text

  479. Duration : 1 h 50 min

  480. Bit rate : 58 b/s

  481. Count of elements : 1603

  482. Stream size : 47.2 KiB (0%)

  483. Title : Dutch

  484. Language : Dutch

  485. Default : No

  486. Forced : No


  487. Text #9

  488. ID : 27

  489. Format : UTF-8

  490. Codec ID : S_TEXT/UTF8

  491. Codec ID/Info : UTF-8 Plain Text

  492. Duration : 1 h 50 min

  493. Bit rate : 57 b/s

  494. Count of elements : 1440

  495. Stream size : 46.8 KiB (0%)

  496. Title : Finnish

  497. Language : Finnish

  498. Default : No

  499. Forced : No


  500. Text #10

  501. ID : 28

  502. Format : UTF-8

  503. Codec ID : S_TEXT/UTF8

  504. Codec ID/Info : UTF-8 Plain Text

  505. Duration : 1 h 50 min

  506. Bit rate : 108 b/s

  507. Count of elements : 2195

  508. Stream size : 87.7 KiB (0%)

  509. Title : French

  510. Language : French

  511. Default : No

  512. Forced : No


  513. Text #11

  514. ID : 29

  515. Format : UTF-8

  516. Codec ID : S_TEXT/UTF8

  517. Codec ID/Info : UTF-8 Plain Text

  518. Duration : 1 h 50 min

  519. Bit rate : 3 b/s

  520. Count of elements : 77

  521. Stream size : 2.57 KiB (0%)

  522. Title : French (Forced)

  523. Language : French

  524. Default : No

  525. Forced : Yes


  526. Text #12

  527. ID : 30

  528. Format : UTF-8

  529. Codec ID : S_TEXT/UTF8

  530. Codec ID/Info : UTF-8 Plain Text

  531. Duration : 1 h 50 min

  532. Bit rate : 62 b/s

  533. Count of elements : 1657

  534. Stream size : 50.9 KiB (0%)

  535. Title : German

  536. Language : German

  537. Default : No

  538. Forced : No


  539. Text #13

  540. ID : 31

  541. Format : UTF-8

  542. Codec ID : S_TEXT/UTF8

  543. Codec ID/Info : UTF-8 Plain Text

  544. Duration : 1 h 50 min

  545. Bit rate : 96 b/s

  546. Count of elements : 1687

  547. Stream size : 77.9 KiB (0%)

  548. Title : Greek

  549. Language : Greek

  550. Default : No

  551. Forced : No


  552. Text #14

  553. ID : 32

  554. Format : UTF-8

  555. Codec ID : S_TEXT/UTF8

  556. Codec ID/Info : UTF-8 Plain Text

  557. Duration : 1 h 50 min

  558. Bit rate : 95 b/s

  559. Count of elements : 1690

  560. Stream size : 77.2 KiB (0%)

  561. Title : Hebrew

  562. Language : Hebrew

  563. Default : No

  564. Forced : No


  565. Text #15

  566. ID : 33

  567. Format : UTF-8

  568. Codec ID : S_TEXT/UTF8

  569. Codec ID/Info : UTF-8 Plain Text

  570. Duration : 1 h 50 min

  571. Bit rate : 60 b/s

  572. Count of elements : 1682

  573. Stream size : 49.3 KiB (0%)

  574. Title : Hungarian

  575. Language : Hungarian

  576. Default : No

  577. Forced : No


  578. Text #16

  579. ID : 34

  580. Format : UTF-8

  581. Codec ID : S_TEXT/UTF8

  582. Codec ID/Info : UTF-8 Plain Text

  583. Duration : 1 h 50 min

  584. Bit rate : 60 b/s

  585. Count of elements : 1678

  586. Stream size : 48.9 KiB (0%)

  587. Title : Indonesian

  588. Language : Indonesian

  589. Default : No

  590. Forced : No


  591. Text #17

  592. ID : 35

  593. Format : UTF-8

  594. Codec ID : S_TEXT/UTF8

  595. Codec ID/Info : UTF-8 Plain Text

  596. Duration : 1 h 50 min

  597. Bit rate : 59 b/s

  598. Count of elements : 1692

  599. Stream size : 48.4 KiB (0%)

  600. Title : Italian

  601. Language : Italian

  602. Default : No

  603. Forced : No


  604. Text #18

  605. ID : 36

  606. Format : UTF-8

  607. Codec ID : S_TEXT/UTF8

  608. Codec ID/Info : UTF-8 Plain Text

  609. Duration : 1 h 50 min

  610. Bit rate : 60 b/s

  611. Count of elements : 1921

  612. Stream size : 49.0 KiB (0%)

  613. Title : Japanese

  614. Language : Japanese

  615. Default : No

  616. Forced : No


  617. Text #19

  618. ID : 37

  619. Format : UTF-8

  620. Codec ID : S_TEXT/UTF8

  621. Codec ID/Info : UTF-8 Plain Text

  622. Duration : 1 h 50 min

  623. Bit rate : 78 b/s

  624. Count of elements : 1778

  625. Stream size : 63.1 KiB (0%)

  626. Title : Korean

  627. Language : Korean

  628. Default : No

  629. Forced : No


  630. Text #20

  631. ID : 38

  632. Format : UTF-8

  633. Codec ID : S_TEXT/UTF8

  634. Codec ID/Info : UTF-8 Plain Text

  635. Duration : 1 h 50 min

  636. Bit rate : 58 b/s

  637. Count of elements : 1633

  638. Stream size : 47.1 KiB (0%)

  639. Title : Malay

  640. Language : Malay

  641. Default : No

  642. Forced : No


  643. Text #21

  644. ID : 39

  645. Format : UTF-8

  646. Codec ID : S_TEXT/UTF8

  647. Codec ID/Info : UTF-8 Plain Text

  648. Duration : 1 h 50 min

  649. Bit rate : 53 b/s

  650. Count of elements : 1253

  651. Stream size : 43.4 KiB (0%)

  652. Title : Norwegian Bokmal

  653. Language : Norwegian Bokmal

  654. Default : No

  655. Forced : No


  656. Text #22

  657. ID : 40

  658. Format : UTF-8

  659. Codec ID : S_TEXT/UTF8

  660. Codec ID/Info : UTF-8 Plain Text

  661. Duration : 1 h 50 min

  662. Bit rate : 58 b/s

  663. Count of elements : 1674

  664. Stream size : 47.4 KiB (0%)

  665. Title : Polish

  666. Language : Polish

  667. Default : No

  668. Forced : No


  669. Text #23

  670. ID : 41

  671. Format : UTF-8

  672. Codec ID : S_TEXT/UTF8

  673. Codec ID/Info : UTF-8 Plain Text

  674. Duration : 1 h 50 min

  675. Bit rate : 63 b/s

  676. Count of elements : 1819

  677. Stream size : 51.7 KiB (0%)

  678. Title : Portuguese

  679. Language : Portuguese

  680. Default : No

  681. Forced : No


  682. Text #24

  683. ID : 42

  684. Format : UTF-8

  685. Codec ID : S_TEXT/UTF8

  686. Codec ID/Info : UTF-8 Plain Text

  687. Duration : 1 h 50 min

  688. Bit rate : 59 b/s

  689. Count of elements : 1675

  690. Stream size : 48.1 KiB (0%)

  691. Title : Brazilian Portuguese

  692. Language : Portuguese

  693. Default : No

  694. Forced : No


  695. Text #25

  696. ID : 43

  697. Format : UTF-8

  698. Codec ID : S_TEXT/UTF8

  699. Codec ID/Info : UTF-8 Plain Text

  700. Duration : 1 h 50 min

  701. Bit rate : 65 b/s

  702. Count of elements : 1675

  703. Stream size : 52.9 KiB (0%)

  704. Title : Romanian

  705. Language : Romanian

  706. Default : No

  707. Forced : No


  708. Text #26

  709. ID : 44

  710. Format : UTF-8

  711. Codec ID : S_TEXT/UTF8

  712. Codec ID/Info : UTF-8 Plain Text

  713. Duration : 1 h 50 min

  714. Bit rate : 96 b/s

  715. Count of elements : 1679

  716. Stream size : 78.4 KiB (0%)

  717. Title : Russian

  718. Language : Russian

  719. Default : No

  720. Forced : No


  721. Text #27

  722. ID : 45

  723. Format : UTF-8

  724. Codec ID : S_TEXT/UTF8

  725. Codec ID/Info : UTF-8 Plain Text

  726. Duration : 1 h 50 min

  727. Bit rate : 61 b/s

  728. Count of elements : 1753

  729. Stream size : 49.6 KiB (0%)

  730. Title : Spanish

  731. Language : Spanish

  732. Default : No

  733. Forced : No


  734. Text #28

  735. ID : 46

  736. Format : UTF-8

  737. Codec ID : S_TEXT/UTF8

  738. Codec ID/Info : UTF-8 Plain Text

  739. Duration : 1 h 50 min

  740. Bit rate : 59 b/s

  741. Count of elements : 1690

  742. Stream size : 48.4 KiB (0%)

  743. Title : European Spanish

  744. Language : Spanish

  745. Default : No

  746. Forced : No


  747. Text #29

  748. ID : 47

  749. Format : UTF-8

  750. Codec ID : S_TEXT/UTF8

  751. Codec ID/Info : UTF-8 Plain Text

  752. Duration : 1 h 50 min

  753. Bit rate : 57 b/s

  754. Count of elements : 1598

  755. Stream size : 46.4 KiB (0%)

  756. Title : Swedish

  757. Language : Swedish

  758. Default : No

  759. Forced : No


  760. Text #30

  761. ID : 48

  762. Format : UTF-8

  763. Codec ID : S_TEXT/UTF8

  764. Codec ID/Info : UTF-8 Plain Text

  765. Duration : 1 h 50 min

  766. Bit rate : 160 b/s

  767. Count of elements : 1698

  768. Stream size : 130 KiB (0%)

  769. Title : Thai

  770. Language : Thai

  771. Default : No

  772. Forced : No


  773. Text #31

  774. ID : 49

  775. Format : UTF-8

  776. Codec ID : S_TEXT/UTF8

  777. Codec ID/Info : UTF-8 Plain Text

  778. Duration : 1 h 50 min

  779. Bit rate : 59 b/s

  780. Count of elements : 1639

  781. Stream size : 48.4 KiB (0%)

  782. Title : Turkish

  783. Language : Turkish

  784. Default : No

  785. Forced : No


  786. Text #32

  787. ID : 50

  788. Format : UTF-8

  789. Codec ID : S_TEXT/UTF8

  790. Codec ID/Info : UTF-8 Plain Text

  791. Duration : 1 h 50 min

  792. Bit rate : 88 b/s

  793. Count of elements : 1677

  794. Stream size : 71.8 KiB (0%)

  795. Title : Ukrainian

  796. Language : Ukrainian

  797. Default : No

  798. Forced : No


  799. Text #33

  800. ID : 51

  801. Format : UTF-8

  802. Codec ID : S_TEXT/UTF8

  803. Codec ID/Info : UTF-8 Plain Text

  804. Duration : 1 h 50 min

  805. Bit rate : 80 b/s

  806. Count of elements : 1564

  807. Stream size : 65.5 KiB (0%)

  808. Title : Vietnamese

  809. Language : Vietnamese

  810. Default : No

  811. Forced : No



文件下载


除非特别注明,本文『最后的佣兵[简繁字幕].The.Last.Mercenary.2021.1080p.NF.WEB-DL.DDP5.1.x264 11.79GB』来源于互联网机器人自动抓取,非本站原创。 浮游电影网不对本文拥有版权,如有侵犯,请联系邮箱:fuyouu#yandex.com[#换成@]投诉。我们会在15个工作日内删除。 但烦请转载时请标明出处:“本文转载于『浮游电影网』,原文地址:https://www.fuyouu.com/13330.html

评论吧骚年!

发表你的见解   

昵称*

E-mail*(建议输入,以便收到博主回复的提示邮件)

验证码*

您可以使用eMule或eMule Mod(Windows)、aMule(Win、Linux、Mac)等软件下载eD2k链接。。
eMule收藏集(.emulecollection)文件是您选中的所有链接的列表文件。eMule可以直接下载它们。
按住SHIFT键选择可以选中多个选择框。
可用文件名和大小选择器来选择文件。
文件名选择器帮您根据文件名称或后缀来选择文件。不分大小写。
符号使用:
和:空格( )、+
不包含:-
或:|
转义:一对英文引号("");
匹配开头:^
匹配结尾:$
例如:
选中所有名称中包含有“eMule”或“0.49c”字眼,但不包含有“exe”字眼的:emule|0.49c -exe
选中所有名称的开头是“eMule”,结尾是“0.49c”的:^emule 0.49c$
选中所有名称中带有“eMule 0.49c”的(必须是“eMule 0.49c”,中间没有别的字符,不能是“eMule fake 0.49c”),需要转义:"emule 0.49c"
大小选择器帮您根据文件大小选择文件。